找回密码

查看: 2020|回复: 0

[剧情] 衍生玛约莉/马乔里 Marjorie.Prime.2017.1080p.BluRay.REMUX.AVC.DD5.1-FGT 19.61GB

[复制链接]
蓝光币
1984
发表于 2017-12-21 22:40:43 | 显示全部楼层 |阅读模式
135946jt877y7b8y6npmpi.jpg
◎译  名 衍生玛约莉 / 马乔里
◎片  名 衍生玛约莉 Marjorie Prime
◎年  代 2017
◎国  家 美国
◎类  别 剧情
◎语  言 英语
◎上映日期 2017-01-23(圣丹斯电影节) / 2017-08-18(美国)
◎IMDb评分6.4/10 from 1,205 users
◎IMDb链接http://www.imdb.com/title/tt4978710/
◎豆瓣评分 7.3/10 from 69 users
◎豆瓣链接 https://movie.douban.com/subject/26684270/
◎片  长 98分钟
◎导  演 米歇尔·阿米瑞亚德
◎主  演 吉娜·戴维斯 Geena Davis
      乔恩·哈姆 Jon Hamm
      蒂姆·罗宾斯 Tim Robbins
      罗伊丝·史姑娘 Lois Smith
      Stephanie Andujar

◎简  介 

  影片改编自获2014年普利策奖提名的同名戏剧,报告罗伊丝·史姑娘饰演的86岁女配角行迁就木,她的记忆力一天比一天虚弱。有一天,一位长相帅气、与她逝去丈夫极为相像的男人来到她身旁,经过讲故事帮助她渐渐回忆起往昔点滴。实在这位男人就是她的丈夫,只不外经过奇异的科技手段“重回人世”,在同一手段的帮助下,女儿、半子等亲友也都来和她“碰头”了。
  影片在圣丹斯电影节上荣获评委会出格奖,感动无数观众。当爱的人都阔别我们,只剩下已经配合生活的记忆,这些差点被忘记的记忆被渐渐提起时,随之显现的暖和的生活细节,也越来越动听……

◎获奖情况 

  第27届哥谭自力电影奖 (2017)
  最好女演员(提名) 罗伊丝·史姑娘



  1. Video
  2. ID             : 1
  3. Format           : AVC
  4. Format/Info          : Advanced Video Codec
  5. Format profile         : [email]High@L4.1[/email]
  6. Format settings        : CABAC / 3 Ref Frames
  7. Format settings, CABAC       : Yes
  8. Format settings, ReFrames      : 3 frames
  9. Format settings, GOP       : M=3, N=12
  10. Codec ID           : V_MPEG4/ISO/AVC
  11. Duration           : 1 h 39 min
  12. Bit rate mode          : Variable
  13. Bit rate           : 26.5 Mb/s
  14. Maximum bit rate         : 31.0 Mb/s
  15. Width            : 1 920 pixels
  16. Height           : 1 080 pixels
  17. Display aspect ratio       : 16:9
  18. Frame rate mode        : Constant
  19. Frame rate           : 23.976 (24000/1001) FPS
  20. Standard           : NTSC
  21. Color space          : YUV
  22. Chroma subsampling       : 4:2:0
  23. Bit depth          : 8 bits
  24. Scan type          : Progressive
  25. Bits/(Pixel*Frame)       : 0.532
  26. Stream size          : 18.3GB (93%)
  27. Title            : Marjorie.Prime.2017.1080p.BluRay.REMUX.AVC.DD5.1-FGT
  28. Language           : English
  29. Default            : No
  30. Forced           : No
  31. Color range          : Limited
  32. Color primaries        : BT.709
  33. Transfer characteristics     : BT.709
  34. Matrix coefficients        : BT.709

  35. Audio #1
  36. ID             : 2
  37. Format           : AC-3
  38. Format/Info          : Audio Coding 3
  39. Codec ID           : A_AC3
  40. Duration           : 1 h 39 min
  41. Bit rate mode          : Constant
  42. Bit rate           : 448 kb/s
  43. Channel(s)           : 6 channels
  44. Channel positions        : Front: L C R, Side: L R, LFE
  45. Sampling rate          : 48.0 kHz
  46. Frame rate           : 31.250 FPS (1536 SPF)
  47. Bit depth          : 16 bits
  48. Compression mode         : Lossy
  49. Stream size          : 318 MiB (2%)
  50. Title            : Marjorie.Prime.2017.1080p.BluRay.REMUX.AVC.DD5.1-FGT
  51. Language           : English
  52. Service kind         : Complete Main
  53. Default            : Yes
  54. Forced           : No

  55. Audio #2
  56. ID             : 3
  57. Format           : AC-3
  58. Format/Info          : Audio Coding 3
  59. Codec ID           : A_AC3
  60. Duration           : 1 h 39 min
  61. Bit rate mode          : Constant
  62. Bit rate           : 192 kb/s
  63. Channel(s)           : 2 channels
  64. Channel positions        : Front: L R
  65. Sampling rate          : 48.0 kHz
  66. Frame rate           : 31.250 FPS (1536 SPF)
  67. Bit depth          : 16 bits
  68. Compression mode         : Lossy
  69. Stream size          : 136 MiB (1%)
  70. Title            : Marjorie.Prime.2017.1080p.BluRay.REMUX.AVC.DD5.1-FGT
  71. Language           : English
  72. Service kind         : Complete Main
  73. Default            : No
  74. Forced           : No

  75. Audio #3
  76. ID             : 4
  77. Format           : AC-3
  78. Format/Info          : Audio Coding 3
  79. Codec ID           : A_AC3
  80. Duration           : 1 h 39 min
  81. Bit rate mode          : Constant
  82. Bit rate           : 448 kb/s
  83. Channel(s)           : 6 channels
  84. Channel positions        : Front: L C R, Side: L R, LFE
  85. Sampling rate          : 48.0 kHz
  86. Frame rate           : 31.250 FPS (1536 SPF)
  87. Bit depth          : 16 bits
  88. Compression mode         : Lossy
  89. Stream size          : 318 MiB (2%)
  90. Title            : Marjorie.Prime.2017.1080p.BluRay.REMUX.AVC.DD5.1-FGT
  91. Language           : French
  92. Service kind         : Complete Main
  93. Default            : No
  94. Forced           : No

  95. Audio #4
  96. ID             : 5
  97. Format           : AC-3
  98. Format/Info          : Audio Coding 3
  99. Codec ID           : A_AC3
  100. Duration           : 1 h 39 min
  101. Bit rate mode          : Constant
  102. Bit rate           : 192 kb/s
  103. Channel(s)           : 2 channels
  104. Channel positions        : Front: L R
  105. Sampling rate          : 48.0 kHz
  106. Frame rate           : 31.250 FPS (1536 SPF)
  107. Bit depth          : 16 bits
  108. Compression mode         : Lossy
  109. Stream size          : 136 MiB (1%)
  110. Title            : Marjorie.Prime.2017.1080p.BluRay.REMUX.AVC.DD5.1-FGT
  111. Language           : French
  112. Service kind         : Complete Main
  113. Default            : No
  114. Forced           : No

  115. Text #1
  116. ID             : 6
  117. Format           : PGS
  118. Muxing mode          : zlib
  119. Codec ID           : S_HDMV/PGS
  120. Codec ID/Info          : Picture based subtitle format used on BDs/HD-DVDs
  121. Title            : English-PGS
  122. Language           : English
  123. Default            : Yes
  124. Forced           : No

  125. Text #2
  126. ID             : 7
  127. Format           : PGS
  128. Muxing mode          : zlib
  129. Codec ID           : S_HDMV/PGS
  130. Codec ID/Info          : Picture based subtitle format used on BDs/HD-DVDs
  131. Title            : English-SDH-PGS
  132. Language           : English
  133. Default            : No
  134. Forced           : No

  135. Text #3
  136. ID             : 8
  137. Format           : PGS
  138. Muxing mode          : zlib
  139. Codec ID           : S_HDMV/PGS
  140. Codec ID/Info          : Picture based subtitle format used on BDs/HD-DVDs
  141. Title            : French-PGS
  142. Language           : French
  143. Default            : No
  144. Forced           : No

  145. Text #4
  146. ID             : 9
  147. Format           : PGS
  148. Muxing mode          : zlib
  149. Codec ID           : S_HDMV/PGS
  150. Codec ID/Info          : Picture based subtitle format used on BDs/HD-DVDs
  151. Title            : French-FORCED-PGS
  152. Language           : French
  153. Default            : No
  154. Forced           : No

  155. Menu
  156. 00:00:00.000         : en:Chapter 01
  157. 00:12:17.570         : en:Chapter 02
  158. 00:22:51.161         : en:Chapter 03
  159. 00:28:16.486         : en:Chapter 04
  160. 00:45:37.443         : en:Chapter 05
  161. 00:52:16.133         : en:Chapter 06
  162. 01:05:08.905         : en:Chapter 07
  163. 01:14:32.217         : en:Chapter 08
  164. 01:27:49.055         : en:Chapter 09
  165. 01:35:24.760         : en:Chapter 10



复制代码
复制代码
135946rjwm65uuwbmwouq8.jpg 135946bzz4ks2jvp2tjmno.jpg 135946cj4gn3zexooe4nd0.jpg 135946ad0la2h2uda1d1z7.jpg 135946dzlzhk6xyxp0dpkl.jpg 135946cbio2yst4js84par.jpg




回复

使用道具 举报

懒得打字嘛,点击右侧快捷回复 【右侧内容,后台自定义】
您需要登录后才可以回帖 登录 | 立即加入

本版积分规则

Archiver| |网站地图

Copyright © 2024 Comsenz Inc. Powered by 蓝光电影网

本站内容由用户自主分享和转载自互联网,转载目的在于传递更多信息,并不代表本网赞同其观点和对其真实性负责。

如有侵权、违反国家法律政策行为,请联系我们,我们会第一时间及时清除和处理!

举报反馈邮箱:4k1080.com@gmail.com

快速回复 返回顶部 返回列表