找回密码

查看: 4615|回复: 1

[喜剧] 王牌保镖/杀手的保镖 The.Hitmans.Bodyguard.2017.1080p.BluRay.REMUX.AVC.DTS-HD.MA.TrueHD.7.1.Atmos-FGT 36.24GB

[复制链接]
蓝光币
1974
发表于 2017-12-21 22:42:31 | 显示全部楼层 |阅读模式
140205b1cxki59rp15x789.jpg
◎译  名 王牌保镳 / 杀手的保镳 / 杀手保镳 / 保镳救杀手
◎片  名 王牌保镳 The Hitman's Bodyguard
◎年  代 2017
◎国  家 美国 / 中国大陆 / 保加利亚 / 荷兰
◎类  别 笑剧 / 行动 / 犯罪
◎语  言 英语
◎上映日期 2017-09-22(中国大陆) / 2017-08-18(美国)
◎IMDb评分7.0/10 from 82,019 users
◎IMDb链接http://www.imdb.com/title/tt1959563/
◎豆瓣评分 7.3/10 from 56161 users
◎豆瓣链接 https://movie.douban.com/subject/22266126/
◎片  长 118分钟 / 112分钟(中国大陆)
◎导  演 帕特里克·休斯
◎主  演 瑞恩·雷诺兹 Ryan Reynolds
      塞缪尔·杰克逊 Samuel L. Jackson
      加里·奥德曼 Gary Oldman
      萨尔玛·海耶克 Salma Hayek
      艾洛蒂·袁 Elodie Yung
      乔昆姆·德·阿尔梅达 Joaquim de Almeida
      克里斯蒂·米切尔 Kirsty Mitchell
      约瑟芬·德·拉·波美 Joséphine de La Baume
      山姆·哈兹尔丁 Sam Hazeldine
      巴里·阿茨玛 Barry Atsma
      艾比·侯斯 Abbey Hoes
      米哈伊尔·戈尔沃伊 Mikhail Gorevoy

◎简  介 

  达瑞斯(塞缪尔·杰克逊 Samuel L. Jackson 饰)曾是一位令业内助士闻风丧胆的超级杀手,现在已经伏诛的他屈居在铁窗以后,期待着冗长的刑期到头。达瑞斯的妻子索尼娅(萨尔玛·海耶克 Salma Hayek 饰)一样身陷囹圉,某日,达瑞斯获得了一个意外的机遇,可以令索尼娅重获自在,作为交换,他必须出庭作证证实邪恶的罪犯弗拉迪斯拉夫(加里·奥德曼 Gary Oldman 饰)有罪。
  作为护投递瑞斯出庭的负责人,艾米莉亚(艾洛蒂·袁 Elodie Yung 饰)和她的团队遭到了弗拉迪斯拉夫所派出的佣兵的伏击,三军淹没,幸存的艾米莉亚无法之下只能找到私人保镳兼前男友迈克尔(瑞安·雷诺兹 Ryan Reynolds 饰),拜托他贴身庇护达瑞斯。



  1. Video
  2. ID             : 1
  3. Format           : AVC
  4. Format/Info          : Advanced Video Codec
  5. Format profile         : [email]High@L4.1[/email]
  6. Format settings        : CABAC / 4 Ref Frames
  7. Format settings, CABAC       : Yes
  8. Format settings, ReFrames      : 4 frames
  9. Codec ID           : V_MPEG4/ISO/AVC
  10. Duration           : 1 h 58 min
  11. Bit rate mode          : Variable
  12. Maximum bit rate         : 37.0 Mb/s
  13. Width            : 1 920 pixels
  14. Height           : 1 080 pixels
  15. Display aspect ratio       : 16:9
  16. Frame rate mode        : Constant
  17. Frame rate           : 23.976 (24000/1001) FPS
  18. Color space          : YUV
  19. Chroma subsampling       : 4:2:0
  20. Bit depth          : 8 bits
  21. Scan type          : Progressive
  22. Title            : The.Hitmans.Bodyguard.2017.1080p.BluRay.REMUX.AVC.DTS-HD.MA.TrueHD.7.1.Atmos-FGT
  23. Language           : English
  24. Default            : No
  25. Forced           : No

  26. Audio #1
  27. ID             : 2
  28. Format           : TrueHD
  29. Format profile         : TrueHD+Atmos / TrueHD
  30. Codec ID           : A_TRUEHD
  31. Bit rate mode          : Variable
  32. Maximum bit rate         : 7 704 kb/s
  33. Channel(s)           : Object Based / 8 channels
  34. Channel positions        : Object Based / Front: L C R, Side: L R, Back: L R, LFE
  35. Sampling rate          :/ 48.0 kHz
  36. Frame rate           : 1 200.000 FPS (40 SPF)
  37. Compression mode         : Lossless
  38. Title            : The.Hitmans.Bodyguard.2017.1080p.BluRay.REMUX.AVC.DTS-HD.MA.TrueHD.7.1.Atmos-FGT
  39. Language           : English
  40. Default            : Yes
  41. Forced           : No

  42. Audio #2
  43. ID             : 3
  44. Format           : DTS
  45. Format/Info          : Digital Theater Systems
  46. Format profile         : MA / Core
  47. Codec ID           : A_DTS
  48. Duration           : 1 h 58 min
  49. Bit rate mode          : Variable / Constant
  50. Bit rate           : Unknown / 1 509 kb/s
  51. Channel(s)           : 8 channels / 6 channels
  52. Channel positions        : Front: L C R, Side: L R, Back: L R, LFE / Front: L C R, Side: L R, LFE
  53. Sampling rate          : 48.0 kHz
  54. Frame rate           : 93.750 FPS (512 SPF)
  55. Bit depth          : 24 bits
  56. Compression mode         : Lossless / Lossy
  57. Title            : The.Hitmans.Bodyguard.2017.1080p.BluRay.REMUX.AVC.DTS-HD.MA.TrueHD.7.1.Atmos-FGT
  58. Language           : English
  59. Default            : No
  60. Forced           : No

  61. Audio #3
  62. ID             : 4
  63. Format           : AC-3
  64. Format/Info          : Audio Coding 3
  65. Codec ID           : A_AC3
  66. Duration           : 1 h 58 min
  67. Bit rate mode          : Constant
  68. Bit rate           : 640 kb/s
  69. Channel(s)           : 6 channels
  70. Channel positions        : Front: L C R, Side: L R, LFE
  71. Sampling rate          : 48.0 kHz
  72. Frame rate           : 31.250 FPS (1536 SPF)
  73. Bit depth          : 16 bits
  74. Compression mode         : Lossy
  75. Stream size          : 541 MiB (1%)
  76. Title            : The.Hitmans.Bodyguard.2017.1080p.BluRay.REMUX.AVC.DTS-HD.MA.TrueHD.7.1.Atmos-FGT
  77. Language           : English
  78. Service kind         : Complete Main
  79. Default            : No
  80. Forced           : No

  81. Audio #4
  82. ID             : 5
  83. Format           : AC-3
  84. Format/Info          : Audio Coding 3
  85. Codec ID           : A_AC3
  86. Duration           : 1 h 58 min
  87. Bit rate mode          : Constant
  88. Bit rate           : 224 kb/s
  89. Channel(s)           : 2 channels
  90. Channel positions        : Front: L R
  91. Sampling rate          : 48.0 kHz
  92. Frame rate           : 31.250 FPS (1536 SPF)
  93. Bit depth          : 16 bits
  94. Compression mode         : Lossy
  95. Stream size          : 190 MiB (1%)
  96. Title            : The.Hitmans.Bodyguard.2017.1080p.BluRay.REMUX.AVC.DTS-HD.MA.TrueHD.7.1.Atmos-FGT
  97. Language           : English
  98. Service kind         : Complete Main
  99. Default            : No
  100. Forced           : No

  101. Text #1
  102. ID             : 6
  103. Format           : PGS
  104. Muxing mode          : zlib
  105. Codec ID           : S_HDMV/PGS
  106. Codec ID/Info          : Picture based subtitle format used on BDs/HD-DVDs
  107. Title            : English-PGS
  108. Language           : English
  109. Default            : Yes
  110. Forced           : No

  111. Text #2
  112. ID             : 7
  113. Format           : PGS
  114. Muxing mode          : zlib
  115. Codec ID           : S_HDMV/PGS
  116. Codec ID/Info          : Picture based subtitle format used on BDs/HD-DVDs
  117. Title            : Spanish-PGS
  118. Language           : Spanish
  119. Default            : No
  120. Forced           : No

  121. Menu
  122. 00:00:00.000         : en:Chapter 01
  123. 00:07:22.942         : en:Chapter 02
  124. 00:13:53.874         : en:Chapter 03
  125. 00:20:23.305         : en:Chapter 04
  126. 00:27:20.138         : en:Chapter 05
  127. 00:32:53.513         : en:Chapter 06
  128. 00:38:25.428         : en:Chapter 07
  129. 00:46:52.976         : en:Chapter 08
  130. 00:56:39.354         : en:Chapter 09
  131. 01:00:23.369         : en:Chapter 10
  132. 01:09:11.397         : en:Chapter 11
  133. 01:16:34.381         : en:Chapter 12
  134. 01:21:11.241         : en:Chapter 13
  135. 01:27:45.093         : en:Chapter 14
  136. 01:35:06.742         : en:Chapter 15
  137. 01:40:37.740         : en:Chapter 16



复制代码
复制代码
140205toym7o7xy3fyaey7.jpg 140205gwvmgiy2wefzghwm.jpg 140205hi9n38trgrxeazrf.jpg 140205eojjajvool64ggnv.jpg 140205asg2b2207pg5tpzd.jpg 140205c9ycec3595p55i5q.jpg





回复

使用道具 举报

蓝光币
821
发表于 2018-1-23 21:03:54 | 显示全部楼层
谢谢分享!!!
回复

使用道具 举报

懒得打字嘛,点击右侧快捷回复 【右侧内容,后台自定义】
您需要登录后才可以回帖 登录 | 立即加入

本版积分规则

Archiver| |网站地图

Copyright © 2024 Comsenz Inc. Powered by 蓝光电影网

本站内容由用户自主分享和转载自互联网,转载目的在于传递更多信息,并不代表本网赞同其观点和对其真实性负责。

如有侵权、违反国家法律政策行为,请联系我们,我们会第一时间及时清除和处理!

举报反馈邮箱:4k1080.com@gmail.com

快速回复 返回顶部 返回列表