找回密码

查看: 4652|回复: 3

[动画] BLAME!/ブラム! Blame.2017.1080p.BluRay.REMUX.AVC.TrueHD.7.1.Atmos-FGT 26.05GB

[复制链接]
蓝光币
2039
发表于 2017-12-21 22:42:55 | 显示全部楼层 |阅读模式
140238jed29k3kdrdiir2r.jpg
◎译  名 BLAME! / ブラム! / BLAME! 劇場版 / 奸细次世代 / 摸索者!
◎片  名 BLAME!
◎年  代 2017
◎国  家 日本
◎类  别 科幻 / 动画
◎语  言 日语
◎上映日期 2017-05-20(日本)
◎IMDb评分6.7/10 from 3,279 users
◎IMDb链接http://www.imdb.com/title/tt6574146/
◎豆瓣评分 7.6/10 from 4036 users
◎豆瓣链接 https://movie.douban.com/subject/26670584/
◎片  长 106分钟
◎导  演 濑下宽之
◎主  演 樱井孝宏 Takahiro Sakurai
      花泽香菜 Kana Hanazawa
      雨宫天 Sora Amamiya
      山路和弘 Kazuhiro Yamaji
      宫野真守 Mamoru Miyano
      洲崎绫 Aya Suzaki
      岛崎信长 Nobunaga Shimazaki
      梶裕贵 Y?ki Kaji
      丰崎爱生 Aki Toyosaki
      早见沙织 Saori Hayami

◎简  介 

  天下观
  故事发生在时候和地址皆没法判明的超未来。
  天下由高度发财的收集(软件)和作为其现实载体的超机关体(硬件)所组成。本该是得益于科技繁华成长的人类却由于一场灾难损失了毗连收集的资历和才能(相当于百姓权)。
  没有了安排者的AI根据治理规定起头排挤落空了收集毗连资历的人类。而忘怀了已经的繁华的人们,只能在治理系统的阴影下轻易偷生。本作的舞台就被设定在这样一小我类日渐衰亡的天下。
  都会机关体
  作为舞台的天下就像一个庞大的高楼大概说是毗连了一切修建的庞大都会。大部分为超机关体所遮蔽,构成了门路结构。由于扶植者的失控,都会机关体正在无止地步扩大当中,就本作故事发生的时候为止最少已到达木星轨道面。按照统治局描写,正是都会的这样漫无目标地长大从底子上致使了涉及全天下的紊乱。其成果毋庸置疑的生齿密度极端下降。
  情况
  就都会机关体所触及的范围由于其间散布的纳米机械人的感化保证了生物学上的病毒的解除实现了无菌状态。而这一功效则是由已经性能一般运转时辰的收集球赐与统治局的指示所实现的。同一作者的《BIOMEGA》和《DEADHEADS》作品主体中的由于强力病毒激发的沾抱病在本作华夏则上是不成能发生的。从这些设定中可以揣度作为收集終端遗传因子的变异缘由的“传染”不同即是其字面上的传染,很有能够是由于系统逻辑上的分歧所引发的。
  故事纲领
  摸索者雾亥流浪在数千层一望无边的庞大门路都会当中。手持可以贯串一切物资的重力子放射线射出装配追随着收集終端遗传因子。



  1. Video
  2. ID             : 1
  3. Format           : AVC
  4. Format/Info          : Advanced Video Codec
  5. Format profile         : [email]High@L4.1[/email]
  6. Format settings        : CABAC / 4 Ref Frames
  7. Format settings, CABAC       : Yes
  8. Format settings, ReFrames      : 4 frames
  9. Codec ID           : V_MPEG4/ISO/AVC
  10. Duration           : 1 h 45 min
  11. Bit rate mode          : Variable
  12. Maximum bit rate         : 26.0 Mb/s
  13. Width            : 1 920 pixels
  14. Height           : 1 080 pixels
  15. Display aspect ratio       : 16:9
  16. Frame rate mode        : Constant
  17. Frame rate           : 23.976 (24000/1001) FPS
  18. Color space          : YUV
  19. Chroma subsampling       : 4:2:0
  20. Bit depth          : 8 bits
  21. Scan type          : Progressive
  22. Title            : Blame.2017.1080p.BluRay.REMUX.AVC.TrueHD.7.1.Atmos-FGT
  23. Language           : English
  24. Default            : No
  25. Forced           : No
  26. Color range          : Limited
  27. Color primaries        : BT.709
  28. Transfer characteristics     : BT.709
  29. Matrix coefficients        : BT.709

  30. Audio #1
  31. ID             : 2
  32. Format           : TrueHD
  33. Format profile         : TrueHD+Atmos / TrueHD
  34. Codec ID           : A_TRUEHD
  35. Bit rate mode          : Variable
  36. Maximum bit rate         : 8 019 kb/s
  37. Channel(s)           : Object Based / 8 channels
  38. Channel positions        : Object Based / Front: L C R, Side: L R, Back: L R, LFE
  39. Sampling rate          :/ 48.0 kHz
  40. Frame rate           : 1 200.000 FPS (40 SPF)
  41. Compression mode         : Lossless
  42. Title            : Blame.2017.1080p.BluRay.REMUX.AVC.TrueHD.7.1.Atmos-FGT
  43. Language           : Japanese
  44. Default            : Yes
  45. Forced           : No

  46. Audio #2
  47. ID             : 3
  48. Format           : AC-3
  49. Format/Info          : Audio Coding 3
  50. Codec ID           : A_AC3
  51. Duration           : 1 h 45 min
  52. Bit rate mode          : Constant
  53. Bit rate           : 640 kb/s
  54. Channel(s)           : 6 channels
  55. Channel positions        : Front: L C R, Side: L R, LFE
  56. Sampling rate          : 48.0 kHz
  57. Frame rate           : 31.250 FPS (1536 SPF)
  58. Bit depth          : 16 bits
  59. Compression mode         : Lossy
  60. Stream size          : 483 MiB (2%)
  61. Title            : Blame.2017.1080p.BluRay.REMUX.AVC.TrueHD.7.1.Atmos-FGT
  62. Language           : Japanese
  63. Service kind         : Complete Main
  64. Default            : No
  65. Forced           : No

  66. Audio #3
  67. ID             : 4
  68. Format           : TrueHD
  69. Codec ID           : A_TRUEHD
  70. Duration           : 1 h 45 min
  71. Bit rate mode          : Variable
  72. Maximum bit rate         : 5 481 kb/s
  73. Channel(s)           : 6 channels
  74. Channel positions        : Front: L C R, Side: L R, LFE
  75. Sampling rate          : 48.0 kHz
  76. Frame rate           : 1 200.000 FPS (40 SPF)
  77. Compression mode         : Lossless
  78. Title            : Blame.2017.1080p.BluRay.REMUX.AVC.TrueHD.7.1.Atmos-FGT
  79. Language           : English
  80. Default            : No
  81. Forced           : No

  82. Audio #4
  83. ID             : 5
  84. Format           : AC-3
  85. Format/Info          : Audio Coding 3
  86. Codec ID           : A_AC3
  87. Duration           : 1 h 45 min
  88. Bit rate mode          : Constant
  89. Bit rate           : 640 kb/s
  90. Channel(s)           : 6 channels
  91. Channel positions        : Front: L C R, Side: L R, LFE
  92. Sampling rate          : 48.0 kHz
  93. Frame rate           : 31.250 FPS (1536 SPF)
  94. Bit depth          : 16 bits
  95. Compression mode         : Lossy
  96. Stream size          : 483 MiB (2%)
  97. Title            : Blame.2017.1080p.BluRay.REMUX.AVC.TrueHD.7.1.Atmos-FGT
  98. Language           : English
  99. Service kind         : Complete Main
  100. Default            : No
  101. Forced           : No

  102. Audio #5
  103. ID             : 6
  104. Format           : PCM
  105. Codec ID           : A_PCM/INT/LIT
  106. Duration           : 1 h 45 min
  107. Bit rate mode          : Constant
  108. Channel(s)           : 2 channels
  109. Sampling rate          : 48.0 kHz
  110. Bit depth          : 24 bits
  111. Title            : Blame.2017.1080p.BluRay.REMUX.AVC.TrueHD.7.1.Atmos-FGT
  112. Language           : Japanese
  113. Default            : No
  114. Forced           : No

  115. Text
  116. ID             : 7
  117. Format           : PGS
  118. Muxing mode          : zlib
  119. Codec ID           : S_HDMV/PGS
  120. Codec ID/Info          : Picture based subtitle format used on BDs/HD-DVDs
  121. Title            : English-PGS
  122. Language           : English
  123. Default            : Yes
  124. Forced           : No

  125. Menu
  126. 00:00:00.000         : ja:Chapter 01
  127. 00:00:28.028         : ja:Chapter 02
  128. 00:01:19.204         : ja:Chapter 03
  129. 00:15:35.100         : ja:Chapter 04
  130. 00:18:36.281         : ja:Chapter 05
  131. 00:26:44.144         : ja:Chapter 06
  132. 00:38:24.969         : ja:Chapter 07
  133. 00:42:19.745         : ja:Chapter 08
  134. 00:47:21.338         : ja:Chapter 09
  135. 00:49:19.831         : ja:Chapter 10
  136. 00:56:30.178         : ja:Chapter 11
  137. 00:59:54.966         : ja:Chapter 12
  138. 01:02:16.607         : ja:Chapter 13
  139. 01:08:22.932         : ja:Chapter 14
  140. 01:11:00.673         : ja:Chapter 15
  141. 01:14:38.265         : ja:Chapter 16
  142. 01:17:49.414         : ja:Chapter 17
  143. 01:24:10.295         : ja:Chapter 18
  144. 01:28:12.912         : ja:Chapter 19
  145. 01:37:03.818         : ja:Chapter 20
  146. 01:38:39.830         : ja:Chapter 21



复制代码
复制代码
140238ww3dh9hhh97zqhzq.jpg 140238kee0aebeknaag9pg.jpg 140238amg2xmf2d3m2mmmu.jpg 140238o6rehwvr36khevad.jpg 140238qzp03ljajekkkaal.jpg 140238na6sw6ue6lb11e6a.jpg

                                


回复

使用道具 举报

懒得打字嘛,点击右侧快捷回复 【右侧内容,后台自定义】
您需要登录后才可以回帖 登录 | 立即加入

本版积分规则

Archiver| |网站地图

Copyright © 2024 Comsenz Inc. Powered by 蓝光电影网

本站内容由用户自主分享和转载自互联网,转载目的在于传递更多信息,并不代表本网赞同其观点和对其真实性负责。

如有侵权、违反国家法律政策行为,请联系我们,我们会第一时间及时清除和处理!

举报反馈邮箱:4k1080.com@gmail.com

快速回复 返回顶部 返回列表