找回密码

查看: 2765|回复: 0

[喜剧] 安全邻域/小心为上 Better.Watch.Out.2016.1080p.BluRay.REMUX.AVC.DTS-HD.MA.5.1-FGT 14.81GB

[复制链接]
蓝光币
1992
发表于 2017-12-21 22:54:17 | 显示全部楼层 |阅读模式
102156m7ydrrs7izyzmmru.jpg
◎译  名 平安邻域 / 谨慎为上 / Safe Neighborhood
◎片  名 平安邻域 Better Watch Out
◎年  代 2016
◎国  家 美国 / 澳大利亚
◎类  别 笑剧 / 惊悚 / 可骇
◎语  言 英语
◎上映日期 2016-09-22(奇异电影节) / 2017-10-06(美国)
◎IMDb评分6.6/10 from 7,246 users
◎IMDb链接http://www.imdb.com/title/tt4443658/
◎豆瓣评分 6.4/10 from 3158 users
◎豆瓣链接 https://movie.douban.com/subject/26731238/
◎片  长 89分钟
◎导  演 克里斯·佩寇维
◎主  演 奥利维亚·德容格 Olivia DeJonge
      维吉妮娅·马德森 Virginia Madsen
      帕特里克·沃伯顿 Patrick Warburton
      戴克·蒙哥马利 Dacre Montgomery
      莱维·米勒 Levi Miller
      艾德·奥克森博尔德 Ed Oxenbould
      亚历克斯·米基克 Aleks Mikic
      塔拉·杰德·博格 Tara Jade Borg
      布伦丹·克莱金 Brendan Clearkin
      崔西娅·玛丽·亨尼西 Tricia Mary Hennessy

◎简  介 

  血腥版《小鬼当家》,口碑还不错的儿童可骇新片,“小飞侠”莱维·米勒饰演的男配角,怙恃假期出门,家中留下他、好友和怙恃找来看管他的保姆。这晚闯入者来找小保姆麻烦,却被逮到还被残暴的熬煎...



  1. Video
  2. ID             : 1
  3. Format           : AVC
  4. Format/Info          : Advanced Video Codec
  5. Format profile         : [email]High@L4.1[/email]
  6. Format settings        : CABAC / 4 Ref Frames
  7. Format settings, CABAC       : Yes
  8. Format settings, ReFrames      : 4 frames
  9. Codec ID           : V_MPEG4/ISO/AVC
  10. Duration           : 1 h 28 min
  11. Bit rate mode          : Variable
  12. Maximum bit rate         : 25.0 Mb/s
  13. Width            : 1 920 pixels
  14. Height           : 1 080 pixels
  15. Display aspect ratio       : 16:9
  16. Frame rate mode        : Constant
  17. Frame rate           : 24.000 FPS
  18. Color space          : YUV
  19. Chroma subsampling       : 4:2:0
  20. Bit depth          : 8 bits
  21. Scan type          : Progressive
  22. Title            : Better.Watch.Out.2016.1080p.BluRay.REMUX.AVC.DTS-HD.MA.5.1-FGT
  23. Language           : English
  24. Default            : No
  25. Forced           : No

  26. Audio #1
  27. ID             : 2
  28. Format           : DTS
  29. Format/Info          : Digital Theater Systems
  30. Format profile         : MA / Core
  31. Codec ID           : A_DTS
  32. Duration           : 1 h 28 min
  33. Bit rate mode          : Variable / Constant
  34. Bit rate           : Unknown / 1 509 kb/s
  35. Channel(s)           : 6 channels
  36. Channel positions        : Front: L C R, Side: L R, LFE
  37. Sampling rate          : 48.0 kHz
  38. Frame rate           : 93.750 FPS (512 SPF)
  39. Bit depth          : 16 bits
  40. Compression mode         : Lossless / Lossy
  41. Delay relative to video      : 2 s 0 ms
  42. Title            : Better.Watch.Out.2016.1080p.BluRay.REMUX.AVC.DTS-HD.MA.5.1-FGT
  43. Language           : English
  44. Default            : Yes
  45. Forced           : No

  46. Audio #2
  47. ID             : 3
  48. Format           : DTS
  49. Format/Info          : Digital Theater Systems
  50. Codec ID           : A_DTS
  51. Duration           : 1 h 28 min
  52. Bit rate mode          : Constant
  53. Bit rate           : 1 509 kb/s
  54. Channel(s)           : 6 channels
  55. Channel positions        : Front: L C R, Side: L R, LFE
  56. Sampling rate          : 48.0 kHz
  57. Frame rate           : 93.750 FPS (512 SPF)
  58. Bit depth          : 16 bits
  59. Compression mode         : Lossy
  60. Delay relative to video      : 2 s 0 ms
  61. Stream size          : 959 MiB (6%)
  62. Title            : Better.Watch.Out.2016.1080p.BluRay.REMUX.AVC.DTS-HD.MA.5.1-FGT
  63. Language           : English
  64. Default            : No
  65. Forced           : No

  66. Audio #3
  67. ID             : 4
  68. Format           : AC-3
  69. Format/Info          : Audio Coding 3
  70. Codec ID           : A_AC3
  71. Duration           : 1 h 28 min
  72. Bit rate mode          : Constant
  73. Bit rate           : 384 kb/s
  74. Channel(s)           : 2 channels
  75. Channel positions        : Front: L R
  76. Sampling rate          : 48.0 kHz
  77. Frame rate           : 31.250 FPS (1536 SPF)
  78. Bit depth          : 16 bits
  79. Compression mode         : Lossy
  80. Delay relative to video      : 2 s 0 ms
  81. Stream size          : 244 MiB (2%)
  82. Title            : Better.Watch.Out.2016.1080p.BluRay.REMUX.AVC.DTS-HD.MA.5.1-FGT
  83. Language           : English
  84. Service kind         : Complete Main
  85. Default            : No
  86. Forced           : No

  87. Text
  88. ID             : 5
  89. Format           : PGS
  90. Muxing mode          : zlib
  91. Codec ID           : S_HDMV/PGS
  92. Codec ID/Info          : Picture based subtitle format used on BDs/HD-DVDs
  93. Title            : English-PGS
  94. Language           : English
  95. Default            : Yes
  96. Forced           : No

  97. Menu
  98. 00:00:00.000         : en:Chapter 00
  99. 00:06:29.458         : en:Chapter 01
  100. 00:11:39.958         : en:Chapter 02
  101. 00:21:11.000         : en:Chapter 03
  102. 00:29:43.041         : en:Chapter 04
  103. 00:33:19.125         : en:Chapter 05
  104. 00:44:38.666         : en:Chapter 06
  105. 00:54:49.583         : en:Chapter 07
  106. 01:01:58.500         : en:Chapter 08
  107. 01:09:15.250         : en:Chapter 09
  108. 01:17:45.958         : en:Chapter 10
  109. 01:23:29.833         : en:Chapter 11



复制代码
复制代码
102156h3e6r8kj3855n835.jpg 102156v0ix4ascxbujozcg.jpg 102156p4wr2wwsc5c188kh.jpg 102156yz1cwde4rtcdo14x.jpg 102156adwtuzautqttkgcu.jpg 102156i91yohmp8qyz9yhs.jpg

                                



回复

使用道具 举报

懒得打字嘛,点击右侧快捷回复 【右侧内容,后台自定义】
您需要登录后才可以回帖 登录 | 立即加入

本版积分规则

Archiver| |网站地图

Copyright © 2024 Comsenz Inc. Powered by 蓝光电影网

本站内容由用户自主分享和转载自互联网,转载目的在于传递更多信息,并不代表本网赞同其观点和对其真实性负责。

如有侵权、违反国家法律政策行为,请联系我们,我们会第一时间及时清除和处理!

举报反馈邮箱:4k1080.com@gmail.com

快速回复 返回顶部 返回列表