找回密码

查看: 2989|回复: 1

[动画] 我的爸爸是森林之王/大脚冒险王 The.Son.Of.Bigfoot.2017.1080p.BluRay.REMUX.AVC.DTS-HD.MA.5.1-FGT 22.26GB

[复制链接]
蓝光币
2048
发表于 2017-12-21 23:00:35 | 显示全部楼层 |阅读模式
110420jg2mntogurznzpy1.jpg
◎译  名 我的爸爸是森林之王 / 大脚冒险王 / 大脚的儿子 / Bigfoot Junior
◎片  名 我的爸爸是森林之王 The Son Of Bigfoot
◎年  代 2017
◎国  家 比利时 / 法国
◎类  别 笑剧 / 动画 / 冒险
◎语  言 法语 / 英语
◎上映日期 2017-10-14(中国大陆) / 2017-08-16(法国)
◎IMDb评分6.2/10 from 952 users
◎IMDb链接http://www.imdb.com/title/tt5715410/
◎豆瓣评分 6.7/10 from 1006 users
◎豆瓣链接 https://movie.douban.com/subject/27046450/
◎片  长 91分钟
◎导  演 本·斯塔森 / 杰里米·德格鲁森
◎主  演 克里斯托弗·L·帕森 Christopher L. Parson
      乔·托马斯 Joe Thomas
      辛达·亚当斯 Cinda Adams
      鲍勃·巴伦 Bob Barlen
      卡尔·布伦克尔 Cal Brunker
      乔伊·卡门 Joey Camen

◎简  介 

  亚当,一个十三岁的、分歧群的男孩,为了发现父亲失落背后的奥秘,踏上了一段惊心动魄、使人难忘的征程。他很快发现他的父亲正是传闻中的大脚怪,他多年来一向潜藏在森林里,以庇护他自己和家人不被大型公司 HairCo. 纠缠。该公司渴望用他的特别 DNA 停止科学尝试。就当这对父子起头填补落空的时光时,亚当很快发现自己也赋有超乎设想的超才能。但他们不晓得的是,HairCo. 正沿着亚当留下的踪影紧追过来......



  1. Video
  2. ID             : 1
  3. Format           : AVC
  4. Format/Info          : Advanced Video Codec
  5. Format profile         : [email]High@L4.1[/email]
  6. Format settings        : CABAC / 2 Ref Frames
  7. Format settings, CABAC       : Yes
  8. Format settings, ReFrames      : 2 frames
  9. Codec ID           : V_MPEG4/ISO/AVC
  10. Duration           : 1 h 32 min
  11. Bit rate mode          : Variable
  12. Maximum bit rate         : 37.2 Mb/s
  13. Width            : 1 920 pixels
  14. Height           : 1 080 pixels
  15. Display aspect ratio       : 16:9
  16. Frame rate mode        : Constant
  17. Frame rate           : 23.976 (24000/1001) FPS
  18. Color space          : YUV
  19. Chroma subsampling       : 4:2:0
  20. Bit depth          : 8 bits
  21. Scan type          : Progressive
  22. Title            : The.Son.Of.Bigfoot.2017.1080p.BluRay.REMUX.AVC.DTS-HD.MA.5.1-FGT
  23. Language           : English
  24. Default            : No
  25. Forced           : No

  26. Audio #1
  27. ID             : 2
  28. Format           : DTS
  29. Format/Info          : Digital Theater Systems
  30. Format profile         : MA / Core
  31. Codec ID           : A_DTS
  32. Duration           : 1 h 32 min
  33. Bit rate mode          : Variable / Constant
  34. Bit rate           : Unknown / 1 509 kb/s
  35. Channel(s)           : 6 channels
  36. Channel positions        : Front: L C R, Side: L R, LFE
  37. Sampling rate          : 48.0 kHz
  38. Frame rate           : 93.750 FPS (512 SPF)
  39. Bit depth          : 24 bits
  40. Compression mode         : Lossless / Lossy
  41. Delay relative to video      : 167 ms
  42. Title            : The.Son.Of.Bigfoot.2017.1080p.BluRay.REMUX.AVC.DTS-HD.MA.5.1-FGT
  43. Language           : English
  44. Default            : Yes
  45. Forced           : No

  46. Audio #2
  47. ID             : 3
  48. Format           : DTS
  49. Format/Info          : Digital Theater Systems
  50. Codec ID           : A_DTS
  51. Duration           : 1 h 32 min
  52. Bit rate mode          : Constant
  53. Bit rate           : 1 509 kb/s
  54. Channel(s)           : 6 channels
  55. Channel positions        : Front: L C R, Side: L R, LFE
  56. Sampling rate          : 48.0 kHz
  57. Frame rate           : 93.750 FPS (512 SPF)
  58. Bit depth          : 24 bits
  59. Compression mode         : Lossy
  60. Delay relative to video      : 167 ms
  61. Stream size          : 996 MiB (4%)
  62. Title            : The.Son.Of.Bigfoot.2017.1080p.BluRay.REMUX.AVC.DTS-HD.MA.5.1-FGT
  63. Language           : English
  64. Default            : No
  65. Forced           : No

  66. Audio #3
  67. ID             : 4
  68. Format           : DTS
  69. Format/Info          : Digital Theater Systems
  70. Codec ID           : A_DTS
  71. Duration           : 1 h 32 min
  72. Bit rate mode          : Constant
  73. Bit rate           : 768 kb/s
  74. Channel(s)           : 6 channels
  75. Channel positions        : Front: L C R, Side: L R, LFE
  76. Sampling rate          : 48.0 kHz
  77. Frame rate           : 93.750 FPS (512 SPF)
  78. Bit depth          : 24 bits
  79. Compression mode         : Lossy
  80. Delay relative to video      : 167 ms
  81. Stream size          : 507 MiB (2%)
  82. Title            : The.Son.Of.Bigfoot.2017.1080p.BluRay.REMUX.AVC.DTS-HD.MA.5.1-FGT
  83. Language           : Dutch
  84. Default            : No
  85. Forced           : No

  86. Audio #4
  87. ID             : 5
  88. Format           : DTS
  89. Format/Info          : Digital Theater Systems
  90. Codec ID           : A_DTS
  91. Duration           : 1 h 32 min
  92. Bit rate mode          : Constant
  93. Bit rate           : 768 kb/s
  94. Channel(s)           : 6 channels
  95. Channel positions        : Front: L C R, Side: L R, LFE
  96. Sampling rate          : 48.0 kHz
  97. Frame rate           : 93.750 FPS (512 SPF)
  98. Bit depth          : 24 bits
  99. Compression mode         : Lossy
  100. Delay relative to video      : 167 ms
  101. Stream size          : 507 MiB (2%)
  102. Title            : The.Son.Of.Bigfoot.2017.1080p.BluRay.REMUX.AVC.DTS-HD.MA.5.1-FGT
  103. Language           : Dutch
  104. Default            : No
  105. Forced           : No

  106. Audio #5
  107. ID             : 6
  108. Format           : DTS
  109. Format/Info          : Digital Theater Systems
  110. Codec ID           : A_DTS
  111. Duration           : 1 h 32 min
  112. Bit rate mode          : Constant
  113. Bit rate           : 768 kb/s
  114. Channel(s)           : 6 channels
  115. Channel positions        : Front: L C R, Side: L R, LFE
  116. Sampling rate          : 48.0 kHz
  117. Frame rate           : 93.750 FPS (512 SPF)
  118. Bit depth          : 24 bits
  119. Compression mode         : Lossy
  120. Delay relative to video      : 167 ms
  121. Stream size          : 507 MiB (2%)
  122. Title            : The.Son.Of.Bigfoot.2017.1080p.BluRay.REMUX.AVC.DTS-HD.MA.5.1-FGT
  123. Language           : French
  124. Default            : No
  125. Forced           : No

  126. Text #1
  127. ID             : 7
  128. Format           : PGS
  129. Muxing mode          : zlib
  130. Codec ID           : S_HDMV/PGS
  131. Codec ID/Info          : Picture based subtitle format used on BDs/HD-DVDs
  132. Title            : Dutch-PGS
  133. Language           : Dutch
  134. Default            : No
  135. Forced           : No

  136. Text #2
  137. ID             : 8
  138. Format           : PGS
  139. Muxing mode          : zlib
  140. Codec ID           : S_HDMV/PGS
  141. Codec ID/Info          : Picture based subtitle format used on BDs/HD-DVDs
  142. Title            : French-PGS
  143. Language           : French
  144. Default            : No
  145. Forced           : No

  146. Text #3
  147. ID             : 9
  148. Format           : PGS
  149. Muxing mode          : zlib
  150. Codec ID           : S_HDMV/PGS
  151. Codec ID/Info          : Picture based subtitle format used on BDs/HD-DVDs
  152. Title            : Dutch-PGS
  153. Language           : Dutch
  154. Default            : No
  155. Forced           : No

  156. Text #4
  157. ID             : 10
  158. Format           : PGS
  159. Muxing mode          : zlib
  160. Codec ID           : S_HDMV/PGS
  161. Codec ID/Info          : Picture based subtitle format used on BDs/HD-DVDs
  162. Title            : Dutch-PGS
  163. Language           : Dutch
  164. Default            : No
  165. Forced           : No

  166. Text #5
  167. ID             : 11
  168. Format           : PGS
  169. Muxing mode          : zlib
  170. Codec ID           : S_HDMV/PGS
  171. Codec ID/Info          : Picture based subtitle format used on BDs/HD-DVDs
  172. Title            : French-PGS
  173. Language           : French
  174. Default            : No
  175. Forced           : No

  176. Text #6
  177. ID             : 12
  178. Format           : PGS
  179. Muxing mode          : zlib
  180. Codec ID           : S_HDMV/PGS
  181. Codec ID/Info          : Picture based subtitle format used on BDs/HD-DVDs
  182. Title            : French-PGS
  183. Language           : French
  184. Default            : No
  185. Forced           : No

  186. Menu
  187. 00:00:00.000         : en:Chapter 01
  188. 00:07:23.901         : en:Chapter 02
  189. 00:14:53.767         : en:Chapter 03
  190. 00:22:11.913         : en:Chapter 04
  191. 00:30:27.492         : en:Chapter 05
  192. 00:39:25.613         : en:Chapter 06
  193. 00:48:17.269         : en:Chapter 07
  194. 00:55:43.631         : en:Chapter 08
  195. 01:02:39.130         : en:Chapter 09
  196. 01:11:40.212         : en:Chapter 10
  197. 01:20:36.873         : en:Chapter 11
  198. 01:27:56.312         : en:Chapter 12



复制代码


110421qg8gsgkv3wwk5ki0.jpg 110422g9kbv79lzv4yv9zb.jpg 110423skoompffzoe0hq30.jpg 110423izuw4475ctm1cc5l.jpg 110424bsuxspipi4ptwai4.jpg 110425smcm17z48wm181pz.jpg

                                




回复

使用道具 举报

懒得打字嘛,点击右侧快捷回复 【右侧内容,后台自定义】
您需要登录后才可以回帖 登录 | 立即加入

本版积分规则

Archiver| |网站地图

Copyright © 2024 Comsenz Inc. Powered by 蓝光电影网

本站内容由用户自主分享和转载自互联网,转载目的在于传递更多信息,并不代表本网赞同其观点和对其真实性负责。

如有侵权、违反国家法律政策行为,请联系我们,我们会第一时间及时清除和处理!

举报反馈邮箱:4k1080.com@gmail.com

快速回复 返回顶部 返回列表