找回密码

查看: 2697|回复: 1

[动画] 乐高幻影忍者大电影/乐高忍者大电影 The.LEGO.Ninjago.Movie.2017.1080p.BluRay.REMUX.AVC.DTS-HD.MA.TrueHD.7.1.Atmos-FGT 24.64GB

[复制链接]
蓝光币
2039
发表于 2017-12-21 23:00:57 | 显示全部楼层 |阅读模式
110520m74nuhnt85z34imi.jpg
◎译  名 乐高幻影忍者大电影 / 乐高忍者大电影 / LEGO旋风忍者大电影 / 乐高旋风忍者电影 / 乐高忍者 / Ninjago
◎片  名 乐高幻影忍者大电影 The Lego Ninjago Movie
◎年  代 2017
◎国  家 美国 / 丹麦
◎类  别 笑剧 / 行动 / 动画 / 冒险
◎语  言 英语
◎上映日期 2017-09-22(美国)
◎IMDb评分6.0/10 from 7,133 users
◎IMDb链接http://www.imdb.com/title/tt3014284/
◎豆瓣评分 6.2/10 from 2007 users
◎豆瓣链接 https://movie.douban.com/subject/25833230/
◎片  长 101分钟
◎导  演 查理·宾 / 保罗·费舍尔 / 鲍勃·洛根
◎主  演 成龙 Jackie Chan
      戴夫·弗兰科 Dave Franco
      弗莱德·阿米森 Fred Armisen
      库梅尔·南贾尼 Kumail Nanjiani
      迈克尔·佩纳 Michael Pe?a
      艾比·雅各布森 Abbi Jacobson
      扎克·伍兹 Zach Woods
      大卫·布伦斯 David Burrows
      贾斯汀·塞洛克斯 Justin Theroux
      黄阿丽 Ali Wong
      查琳·易 Charlyne Yi
      奥立薇娅·玛恩 Olivia Munn
      劳拉·奈特林格 Laura Kightlinger
      兰道尔·朴 Randall Park
      瑞塔 Retta
      克里斯·哈德维克 Chris Hardwick
      迈克尔·斯特拉罕 Michael Strahan
      罗宾·罗伯茨 Robin Roberts
      吴恬敏 Constance Wu
      加勒特·埃尔金斯 Garret Elkins
      托德·汉森 Todd Hansen
      道格·尼古拉斯 Doug Nicholas

◎简  介 

  富贵时髦的忍者岛,乐高小人们过着欢畅无忧的日子,除了……隔三差五会遭到邪恶魔头加满都(贾斯汀·塞洛克斯 Justin Theroux 配音)的入侵骚扰外。固然,幸亏有勇敢无畏的幻影忍者,他们一次次自告奋勇,与魔王大战,才使得忍者岛免于被邪恶统治的危险。绿色忍者劳埃德(戴夫·弗兰科 Dave Franco 饰)是加满都的亲生儿子,不晓得他忍者身份的市民们是以经常嘲笑唾骂劳埃德。郁闷的青年只得将一腔怒火撒在以破坏为兴趣的加满都身上。在又一次遭到挫败后,加满都带着能力更强大的军团东山复兴。关键时辰,劳埃德启动了吴大师(成龙 配音)制止利用的终极兵器,终极给忍者岛带来扑灭性的灾难。
  为了拯救忍者岛,幻影忍者们奔走风尘,甚至与加满都展开了合作……



  1. Video
  2. ID             : 1
  3. Format           : AVC
  4. Format/Info          : Advanced Video Codec
  5. Format profile         : [email]High@L4.1[/email]
  6. Format settings        : CABAC / 4 Ref Frames
  7. Format settings, CABAC       : Yes
  8. Format settings, ReFrames      : 4 frames
  9. Codec ID           : V_MPEG4/ISO/AVC
  10. Duration           : 1 h 41 min
  11. Bit rate mode          : Variable
  12. Maximum bit rate         : 27.0 Mb/s
  13. Width            : 1 920 pixels
  14. Height           : 1 080 pixels
  15. Display aspect ratio       : 16:9
  16. Frame rate mode        : Constant
  17. Frame rate           : 23.976 (24000/1001) FPS
  18. Color space          : YUV
  19. Chroma subsampling       : 4:2:0
  20. Bit depth          : 8 bits
  21. Scan type          : Progressive
  22. Title            : The.LEGO.Ninjago.Movie.2017.1080p.BluRay.REMUX.AVC.DTS-HD.MA.TrueHD.7.1.Atmos-FGT
  23. Language           : English
  24. Default            : No
  25. Forced           : No

  26. Audio #1
  27. ID             : 2
  28. Format           : TrueHD
  29. Format profile         : TrueHD+Atmos / TrueHD
  30. Codec ID           : A_TRUEHD
  31. Bit rate mode          : Variable
  32. Maximum bit rate         : 5 967 kb/s
  33. Channel(s)           : Object Based / 8 channels
  34. Channel positions        : Object Based / Front: L C R, Side: L R, Back: L R, LFE
  35. Sampling rate          :/ 48.0 kHz
  36. Frame rate           : 1 200.000 FPS (40 SPF)
  37. Compression mode         : Lossless
  38. Title            : The.LEGO.Ninjago.Movie.2017.1080p.BluRay.REMUX.AVC.DTS-HD.MA.TrueHD.7.1.Atmos-FGT
  39. Language           : English
  40. Default            : Yes
  41. Forced           : No

  42. Audio #2
  43. ID             : 3
  44. Format           : DTS
  45. Format/Info          : Digital Theater Systems
  46. Format profile         : MA / Core
  47. Codec ID           : A_DTS
  48. Duration           : 1 h 41 min
  49. Bit rate mode          : Variable / Constant
  50. Bit rate           : Unknown / 1 509 kb/s
  51. Channel(s)           : 8 channels / 6 channels
  52. Channel positions        : Front: L C R, Side: L R, Back: L R, LFE / Front: L C R, Side: L R, LFE
  53. Sampling rate          : 48.0 kHz
  54. Frame rate           : 93.750 FPS (512 SPF)
  55. Bit depth          : 24 bits
  56. Compression mode         : Lossless / Lossy
  57. Title            : The.LEGO.Ninjago.Movie.2017.1080p.BluRay.REMUX.AVC.DTS-HD.MA.TrueHD.7.1.Atmos-FGT
  58. Language           : English
  59. Default            : No
  60. Forced           : No

  61. Audio #3
  62. ID             : 4
  63. Format           : AC-3
  64. Format/Info          : Audio Coding 3
  65. Codec ID           : A_AC3
  66. Duration           : 1 h 41 min
  67. Bit rate mode          : Constant
  68. Bit rate           : 448 kb/s
  69. Channel(s)           : 6 channels
  70. Channel positions        : Front: L C R, Side: L R, LFE
  71. Sampling rate          : 48.0 kHz
  72. Frame rate           : 31.250 FPS (1536 SPF)
  73. Bit depth          : 16 bits
  74. Compression mode         : Lossy
  75. Stream size          : 325 MiB (1%)
  76. Title            : The.LEGO.Ninjago.Movie.2017.1080p.BluRay.REMUX.AVC.DTS-HD.MA.TrueHD.7.1.Atmos-FGT
  77. Language           : English
  78. Service kind         : Complete Main
  79. Default            : No
  80. Forced           : No

  81. Audio #4
  82. ID             : 5
  83. Format           : DTS
  84. Format/Info          : Digital Theater Systems
  85. Format profile         : MA / Core
  86. Codec ID           : A_DTS
  87. Duration           : 1 h 41 min
  88. Bit rate mode          : Variable / Constant
  89. Bit rate           : Unknown / 1 509 kb/s
  90. Channel(s)           : 6 channels
  91. Channel positions        : Front: L C R, Side: L R, LFE
  92. Sampling rate          : 48.0 kHz
  93. Frame rate           : 93.750 FPS (512 SPF)
  94. Bit depth          : 16 bits
  95. Compression mode         : Lossless / Lossy
  96. Title            : The.LEGO.Ninjago.Movie.2017.1080p.BluRay.REMUX.AVC.DTS-HD.MA.TrueHD.7.1.Atmos-FGT
  97. Language           : English
  98. Default            : No
  99. Forced           : No

  100. Audio #5
  101. ID             : 6
  102. Format           : DTS
  103. Format/Info          : Digital Theater Systems
  104. Codec ID           : A_DTS
  105. Duration           : 1 h 41 min
  106. Bit rate mode          : Constant
  107. Bit rate           : 1 509 kb/s
  108. Channel(s)           : 6 channels
  109. Channel positions        : Front: L C R, Side: L R, LFE
  110. Sampling rate          : 48.0 kHz
  111. Frame rate           : 93.750 FPS (512 SPF)
  112. Bit depth          : 16 bits
  113. Compression mode         : Lossy
  114. Stream size          : 1.07GB (4%)
  115. Title            : The.LEGO.Ninjago.Movie.2017.1080p.BluRay.REMUX.AVC.DTS-HD.MA.TrueHD.7.1.Atmos-FGT
  116. Language           : English
  117. Default            : No
  118. Forced           : No

  119. Audio #6
  120. ID             : 7
  121. Format           : AC-3
  122. Format/Info          : Audio Coding 3
  123. Codec ID           : A_AC3
  124. Duration           : 1 h 41 min
  125. Bit rate mode          : Constant
  126. Bit rate           : 448 kb/s
  127. Channel(s)           : 6 channels
  128. Channel positions        : Front: L C R, Side: L R, LFE
  129. Sampling rate          : 48.0 kHz
  130. Frame rate           : 31.250 FPS (1536 SPF)
  131. Bit depth          : 16 bits
  132. Compression mode         : Lossy
  133. Stream size          : 325 MiB (1%)
  134. Title            : The.LEGO.Ninjago.Movie.2017.1080p.BluRay.REMUX.AVC.DTS-HD.MA.TrueHD.7.1.Atmos-FGT
  135. Language           : English
  136. Service kind         : Complete Main
  137. Default            : No
  138. Forced           : No

  139. Audio #7
  140. ID             : 8
  141. Format           : AC-3
  142. Format/Info          : Audio Coding 3
  143. Codec ID           : A_AC3
  144. Duration           : 1 h 41 min
  145. Bit rate mode          : Constant
  146. Bit rate           : 448 kb/s
  147. Channel(s)           : 6 channels
  148. Channel positions        : Front: L C R, Side: L R, LFE
  149. Sampling rate          : 48.0 kHz
  150. Frame rate           : 31.250 FPS (1536 SPF)
  151. Bit depth          : 16 bits
  152. Compression mode         : Lossy
  153. Stream size          : 325 MiB (1%)
  154. Title            : The.LEGO.Ninjago.Movie.2017.1080p.BluRay.REMUX.AVC.DTS-HD.MA.TrueHD.7.1.Atmos-FGT
  155. Language           : French
  156. Service kind         : Complete Main
  157. Default            : No
  158. Forced           : No

  159. Audio #8
  160. ID             : 9
  161. Format           : AC-3
  162. Format/Info          : Audio Coding 3
  163. Codec ID           : A_AC3
  164. Duration           : 1 h 41 min
  165. Bit rate mode          : Constant
  166. Bit rate           : 448 kb/s
  167. Channel(s)           : 6 channels
  168. Channel positions        : Front: L C R, Side: L R, LFE
  169. Sampling rate          : 48.0 kHz
  170. Frame rate           : 31.250 FPS (1536 SPF)
  171. Bit depth          : 16 bits
  172. Compression mode         : Lossy
  173. Stream size          : 325 MiB (1%)
  174. Title            : The.LEGO.Ninjago.Movie.2017.1080p.BluRay.REMUX.AVC.DTS-HD.MA.TrueHD.7.1.Atmos-FGT
  175. Language           : Spanish
  176. Service kind         : Complete Main
  177. Default            : No
  178. Forced           : No

  179. Audio #9
  180. ID             : 10
  181. Format           : AC-3
  182. Format/Info          : Audio Coding 3
  183. Codec ID           : A_AC3
  184. Duration           : 1 h 41 min
  185. Bit rate mode          : Constant
  186. Bit rate           : 192 kb/s
  187. Channel(s)           : 2 channels
  188. Channel positions        : Front: L R
  189. Sampling rate          : 48.0 kHz
  190. Frame rate           : 31.250 FPS (1536 SPF)
  191. Bit depth          : 16 bits
  192. Compression mode         : Lossy
  193. Stream size          : 139 MiB (1%)
  194. Title            : The.LEGO.Ninjago.Movie.2017.1080p.BluRay.REMUX.AVC.DTS-HD.MA.TrueHD.7.1.Atmos-FGT
  195. Language           : English
  196. Service kind         : Complete Main
  197. Default            : No
  198. Forced           : No

  199. Text #1
  200. ID             : 11
  201. Format           : PGS
  202. Muxing mode          : zlib
  203. Codec ID           : S_HDMV/PGS
  204. Codec ID/Info          : Picture based subtitle format used on BDs/HD-DVDs
  205. Title            : English-PGS
  206. Language           : English
  207. Default            : Yes
  208. Forced           : No

  209. Text #2
  210. ID             : 12
  211. Format           : PGS
  212. Muxing mode          : zlib
  213. Codec ID           : S_HDMV/PGS
  214. Codec ID/Info          : Picture based subtitle format used on BDs/HD-DVDs
  215. Title            : French-PGS
  216. Language           : French
  217. Default            : No
  218. Forced           : No

  219. Text #3
  220. ID             : 13
  221. Format           : PGS
  222. Muxing mode          : zlib
  223. Codec ID           : S_HDMV/PGS
  224. Codec ID/Info          : Picture based subtitle format used on BDs/HD-DVDs
  225. Title            : Spanish-PGS
  226. Language           : Spanish
  227. Default            : No
  228. Forced           : No

  229. Text #4
  230. ID             : 14
  231. Format           : PGS
  232. Muxing mode          : zlib
  233. Codec ID           : S_HDMV/PGS
  234. Codec ID/Info          : Picture based subtitle format used on BDs/HD-DVDs
  235. Title            : French-FORCED-PGS
  236. Language           : French
  237. Default            : No
  238. Forced           : No

  239. Text #5
  240. ID             : 15
  241. Format           : PGS
  242. Muxing mode          : zlib
  243. Codec ID           : S_HDMV/PGS
  244. Codec ID/Info          : Picture based subtitle format used on BDs/HD-DVDs
  245. Title            : Spanish-FORCED-PGS
  246. Language           : Spanish
  247. Default            : No
  248. Forced           : No

  249. Menu
  250. 00:00:00.000         : en:Chapter 01
  251. 00:11:44.745         : en:Chapter 02
  252. 00:23:32.452         : en:Chapter 03
  253. 00:31:09.784         : en:Chapter 04
  254. 00:40:53.367         : en:Chapter 05
  255. 00:53:48.391         : en:Chapter 06
  256. 01:03:05.531         : en:Chapter 07
  257. 01:16:07.688         : en:Chapter 08
  258. 01:25:13.608         : en:Chapter 09
  259. 01:32:10.900         : en:Chapter 10



复制代码
复制代码
110520gvrry7rrsxf5cdh7.jpg 110521jrlrrcgl1gc57boo.jpg 110522licvvoptiwviu4tz.jpg 110522ohk3ryya9r4mnyrh.jpg 110523suu1d3figgp3p9pu.jpg 110524zlrz1hqp4l74px71.jpg

                                




回复

使用道具 举报

懒得打字嘛,点击右侧快捷回复 【右侧内容,后台自定义】
您需要登录后才可以回帖 登录 | 立即加入

本版积分规则

Archiver| |网站地图

Copyright © 2024 Comsenz Inc. Powered by 蓝光电影网

本站内容由用户自主分享和转载自互联网,转载目的在于传递更多信息,并不代表本网赞同其观点和对其真实性负责。

如有侵权、违反国家法律政策行为,请联系我们,我们会第一时间及时清除和处理!

举报反馈邮箱:4k1080.com@gmail.com

快速回复 返回顶部 返回列表