找回密码

查看: 2799|回复: 1

[喜剧] 流浪巴黎/迷失巴黎 Lost.in.Paris.2016.1080p.BluRay.REMUX.AVC.DTS-HD.MA.5.1-FGT 16.11GB

[复制链接]
蓝光币
2039
发表于 2017-12-21 23:02:05 | 显示全部楼层 |阅读模式
195921gddvzw4mt6t6ywpi.jpg
◎译  名 流浪巴黎/丢失巴黎
◎片  名 Paris pieds nus
◎年  代 2016
◎产  地 法国/比利时
◎类  别 笑剧/恋爱
◎语  言 法语/英语
◎上映日期 2016-09-02(特柳赖德电影节)/2017-03-08(法国)/2017-03-15(比利时)
◎IMDb评分6.4/10 from 881 users
◎IMDb链接http://www.imdb.com/title/tt2936884/
◎豆瓣评分 7.4/10 from 2,428 users
◎豆瓣链接 https://movie.douban.com/subject/26457368/
◎片  长 83分钟
◎导  演 多米尼克·阿贝尔 Dominique Abel / 菲奥娜·戈登 Fiona Gordon
◎主  演 菲奥娜·戈登 Fiona Gordon
      多米尼克·阿贝尔 Dominique Abel
      埃玛妞·丽娃 Emmanuelle Riva
      皮埃尔·里夏尔 Pierre Richard
      埃米·博萨德·普梅拉 Emmy Boissard Paumelle
      席琳·洛朗蒂 Céline Laurentie
      夏洛特·达伯里 Charlotte Dubery
      大卫·帕勒泰诺 David Palatino
      弗雷德里克·梅特 Frédéric Meert
      纪尧姆·迪力范 Guillaume Delvingt
      菲利普·马茨 Philippe Martz
      奥利维尔·帕朗蒂 Olivier Parenty
      法布里斯·米利奇 Fabrice Milich
      吉恩·洛森 Jean Loison
      安娜贝尔·科科洛斯 Annabelle Cocollos
      布鲁诺·罗密 Bruno Romy

◎简  介

  菲欧娜是一个普通的小镇图书治理员,一天她意外收到远在巴黎且已经93岁高龄的玛莎阿姨的乞助信后,立即就从加拿大乘飞机赶赴巴黎。但是当她到了玛莎的家时,发现她早已不见了踪影。机遇偶合下,她碰见了多姆,一个怪僻又任性、和睦却又恼人的流浪汉。多姆担忧不擅长法语的菲欧娜单独一人在巴黎陌头流浪,便一向相伴其左右。法式的诙谐、普通的恋爱,欢笑中又吐露着哀痛,《丢失巴黎》秉持了多米尼克·阿贝尔和菲欧娜·戈登作品一向的怪异气概。


  1. Video
  2. ID             : 1
  3. Format           : AVC
  4. Format/Info          : Advanced Video Codec
  5. Format profile         : [email]High@L4.1[/email]
  6. Format settings        : CABAC / 4 Ref Frames
  7. Format settings, CABAC       : Yes
  8. Format settings, ReFrames      : 4 frames
  9. Format settings, GOP       : M=3, N=12
  10. Codec ID           : V_MPEG4/ISO/AVC
  11. Duration           : 1 h 23 min
  12. Bit rate mode          : Variable
  13. Bit rate           : 22.5 Mb/s
  14. Maximum bit rate         : 32.5 Mb/s
  15. Width            : 1 920 pixels
  16. Height           : 1 080 pixels
  17. Display aspect ratio       : 16:9
  18. Frame rate mode        : Constant
  19. Frame rate           : 23.976 (24000/1001) FPS
  20. Standard           : NTSC
  21. Color space          : YUV
  22. Chroma subsampling       : 4:2:0
  23. Bit depth          : 8 bits
  24. Scan type          : Progressive
  25. Bits/(Pixel*Frame)       : 0.453
  26. Stream size          : 13.1GB (81%)
  27. Title            : Lost.in.Paris.2016.1080p.BluRay.REMUX.AVC.DTS-HD.MA.5.1-FGT
  28. Language           : English
  29. Default            : No
  30. Forced           : No
  31. Color range          : Limited
  32. Color primaries        : BT.709
  33. Transfer characteristics     : BT.709
  34. Matrix coefficients        : BT.709

  35. Audio #1
  36. ID             : 2
  37. Format           : DTS
  38. Format/Info          : Digital Theater Systems
  39. Format profile         : MA / Core
  40. Codec ID           : A_DTS
  41. Duration           : 1 h 23 min
  42. Bit rate mode          : Variable / Constant
  43. Bit rate           : 3 680 kb/s / 1 509 kb/s
  44. Channel(s)           : 6 channels
  45. Channel positions        : Front: L C R, Side: L R, LFE
  46. Sampling rate          : 48.0 kHz
  47. Frame rate           : 93.750 FPS (512 SPF)
  48. Bit depth          : 24 bits
  49. Compression mode         : Lossless / Lossy
  50. Stream size          : 2.14GB (13%)
  51. Title            : Lost.in.Paris.2016.1080p.BluRay.REMUX.AVC.DTS-HD.MA.5.1-FGT
  52. Language           : Multiple languages
  53. Default            : Yes
  54. Forced           : No

  55. Audio #2
  56. ID             : 3
  57. Format           : DTS
  58. Format/Info          : Digital Theater Systems
  59. Codec ID           : A_DTS
  60. Duration           : 1 h 23 min
  61. Bit rate mode          : Constant
  62. Bit rate           : 1 509 kb/s
  63. Channel(s)           : 6 channels
  64. Channel positions        : Front: L C R, Side: L R, LFE
  65. Sampling rate          : 48.0 kHz
  66. Frame rate           : 93.750 FPS (512 SPF)
  67. Bit depth          : 24 bits
  68. Compression mode         : Lossy
  69. Stream size          : 897 MiB (5%)
  70. Title            : Lost.in.Paris.2016.1080p.BluRay.REMUX.AVC.DTS-HD.MA.5.1-FGT
  71. Language           : Multiple languages
  72. Default            : No
  73. Forced           : No

  74. Text #1
  75. ID             : 4
  76. Format           : PGS
  77. Muxing mode          : zlib
  78. Codec ID           : S_HDMV/PGS
  79. Codec ID/Info          : Picture based subtitle format used on BDs/HD-DVDs
  80. Duration           : 1 h 15 min
  81. Bit rate           : 7 776 b/s
  82. Count of elements        : 441
  83. Stream size          : 4.18 MiB (0%)
  84. Title            : English-PGS
  85. Language           : English
  86. Default            : No
  87. Forced           : No

  88. Text #2
  89. ID             : 5
  90. Format           : PGS
  91. Muxing mode          : zlib
  92. Codec ID           : S_HDMV/PGS
  93. Codec ID/Info          : Picture based subtitle format used on BDs/HD-DVDs
  94. Duration           : 1 h 21 min
  95. Bit rate           : 11.3 kb/s
  96. Count of elements        : 1082
  97. Stream size          : 6.60 MiB (0%)
  98. Title            : English-SDH-PGS
  99. Language           : English
  100. Default            : No
  101. Forced           : No

  102. Menu
  103. 00:00:00.000         : en:Chapter 01
  104. 00:04:46.411         : en:Chapter 02
  105. 00:12:15.443         : en:Chapter 03
  106. 00:17:30.007         : en:Chapter 04
  107. 00:24:18.582         : en:Chapter 05
  108. 00:29:24.512         : en:Chapter 06
  109. 00:33:54.615         : en:Chapter 07
  110. 00:39:28.240         : en:Chapter 08
  111. 00:44:29.458         : en:Chapter 09
  112. 00:51:04.603         : en:Chapter 10
  113. 00:57:08.758         : en:Chapter 11
  114. 01:02:06.556         : en:Chapter 12
  115. 01:08:19.887         : en:Chapter 13
  116. 01:19:41.401         : en:Chapter 14



复制代码
复制代码
195922graov3346o36qzii.jpg 195923z78mc8w80cflje8n.jpg 195924wqvul9yc2ewelcu9.jpg 195924j9dlrrlovevel2z7.jpg 195925emagts6yzbsdjqda.jpg 195926bufxojnaoouyfwra.jpg

                                



回复

使用道具 举报

懒得打字嘛,点击右侧快捷回复 【右侧内容,后台自定义】
您需要登录后才可以回帖 登录 | 立即加入

本版积分规则

Archiver| |网站地图

Copyright © 2024 Comsenz Inc. Powered by 蓝光电影网

本站内容由用户自主分享和转载自互联网,转载目的在于传递更多信息,并不代表本网赞同其观点和对其真实性负责。

如有侵权、违反国家法律政策行为,请联系我们,我们会第一时间及时清除和处理!

举报反馈邮箱:4k1080.com@gmail.com

快速回复 返回顶部 返回列表