找回密码

查看: 3403|回复: 1

[剧情] 杀破狼·贪狼 Paradox.2017.CHINESE.1080p.BluRay.REMUX.AVC.TrueHD.5.1-FGT 17.86GB

[复制链接]
蓝光币
1992
发表于 2017-12-21 23:04:23 | 显示全部楼层 |阅读模式
112545hsdisk5lsqf6fp5z.jpg
◎译  名 杀破狼·贪狼
◎片  名 殺破狼?貪狼
◎年  代 2017
◎产  地 香港/中国大陆
◎类  别 剧情/行动
◎语  言 粤语
◎上映日期 2017-08-17(中国大陆)/2017-08-25(香港)
◎IMDb评分7.0/10 from 457 users
◎IMDb链接http://www.imdb.com/title/tt7245176/
◎豆瓣评分 7.2/10 from 77,529 users
◎豆瓣链接 https://movie.douban.com/subject/26826398/
◎片  长 101分钟
◎导  演 叶伟信 Wilson Yip
◎主  演 古天乐 Louis Koo
      吴樾 Yue Wu
      托尼·贾 Tony Jaa
      林家栋 Ka Tung Lam
      克里斯·柯林斯 Chris Collins
      郑雪儿 Michelle Saram
      卢惠光 Ken Lo
      蔡洁 Jacky Cai
      陈汉娜 Hanna Chan
      维他亚·潘斯林加姆 Vithaya Pansringarm
      Sompob Benjathikul
      Siraphan Wattanajinda

◎简  介

  香港差人李忠志(古天乐 饰)得知女儿芝(陈汉娜 饰)于泰国旅游间莫名失落,即亲赴泰国报警乞助。负责案件的华人捕快崔杰(吴樾 饰),应允让他一同观察,却想不到李忠志操纵媒体呼吁市民供给线索。 一条意外拍下芝被捉走的片断上载至警方网站,却被奥秘删除。崔杰即连同好友兼同袍Tak(托尼·贾 饰)同赴寻觅片主,却遇奥秘人马截足灭证,狭路重逢,展开追截并与之奋斗。李忠志与崔杰两人慢慢伐查,却发现案中有案,并起头认识凶手背后奥秘势力非他们能对于……

◎获奖情况

  第54届台北金马影展(2017)
  金马奖 最好行动设想(提名) 洪金宝


  1. Video
  2. ID             : 1
  3. Format           : AVC
  4. Format/Info          : Advanced Video Codec
  5. Format profile         : [email]High@L4.1[/email]
  6. Format settings        : CABAC / 4 Ref Frames
  7. Format settings, CABAC       : Yes
  8. Format settings, ReFrames      : 4 frames
  9. Codec ID           : V_MPEG4/ISO/AVC
  10. Duration           : 1 h 39 min
  11. Bit rate mode          : Variable
  12. Maximum bit rate         : 25.0 Mb/s
  13. Width            : 1 920 pixels
  14. Height           : 1 080 pixels
  15. Display aspect ratio       : 16:9
  16. Frame rate mode        : Constant
  17. Frame rate           : 24.000 FPS
  18. Color space          : YUV
  19. Chroma subsampling       : 4:2:0
  20. Bit depth          : 8 bits
  21. Scan type          : Progressive
  22. Title            : Paradox.2017.CHINESE.1080p.BluRay.REMUX.AVC.TrueHD.5.1-FGT
  23. Language           : English
  24. Default            : No
  25. Forced           : No

  26. Audio #1
  27. ID             : 2
  28. Format           : TrueHD
  29. Codec ID           : A_TRUEHD
  30. Duration           : 1 h 39 min
  31. Bit rate mode          : Variable
  32. Maximum bit rate         : 4 764 kb/s
  33. Channel(s)           : 6 channels
  34. Channel positions        : Front: L C R, Side: L R, LFE
  35. Sampling rate          : 96.0 kHz
  36. Frame rate           : 2 400.000 FPS (40 SPF)
  37. Compression mode         : Lossless
  38. Delay relative to video      : 2 s 0 ms
  39. Title            : Paradox.2017.CHINESE.1080p.BluRay.REMUX.AVC.TrueHD.5.1-FGT
  40. Language           : Chinese
  41. Default            : Yes
  42. Forced           : No

  43. Audio #2
  44. ID             : 3
  45. Format           : AC-3
  46. Format/Info          : Audio Coding 3
  47. Codec ID           : A_AC3
  48. Duration           : 1 h 39 min
  49. Bit rate mode          : Constant
  50. Bit rate           : 640 kb/s
  51. Channel(s)           : 6 channels
  52. Channel positions        : Front: L C R, Side: L R, LFE
  53. Sampling rate          : 48.0 kHz
  54. Frame rate           : 31.250 FPS (1536 SPF)
  55. Bit depth          : 16 bits
  56. Compression mode         : Lossy
  57. Delay relative to video      : 2 s 0 ms
  58. Stream size          : 456 MiB (2%)
  59. Title            : Paradox.2017.CHINESE.1080p.BluRay.REMUX.AVC.TrueHD.5.1-FGT
  60. Language           : Chinese
  61. Service kind         : Complete Main
  62. Default            : No
  63. Forced           : No

  64. Audio #3
  65. ID             : 4
  66. Format           : TrueHD
  67. Codec ID           : A_TRUEHD
  68. Duration           : 1 h 39 min
  69. Bit rate mode          : Variable
  70. Maximum bit rate         : 4 764 kb/s
  71. Channel(s)           : 6 channels
  72. Channel positions        : Front: L C R, Side: L R, LFE
  73. Sampling rate          : 96.0 kHz
  74. Frame rate           : 2 400.000 FPS (40 SPF)
  75. Compression mode         : Lossless
  76. Delay relative to video      : 2 s 0 ms
  77. Title            : Paradox.2017.CHINESE.1080p.BluRay.REMUX.AVC.TrueHD.5.1-FGT
  78. Language           : Chinese
  79. Default            : No
  80. Forced           : No

  81. Audio #4
  82. ID             : 5
  83. Format           : AC-3
  84. Format/Info          : Audio Coding 3
  85. Codec ID           : A_AC3
  86. Duration           : 1 h 39 min
  87. Bit rate mode          : Constant
  88. Bit rate           : 640 kb/s
  89. Channel(s)           : 6 channels
  90. Channel positions        : Front: L C R, Side: L R, LFE
  91. Sampling rate          : 48.0 kHz
  92. Frame rate           : 31.250 FPS (1536 SPF)
  93. Bit depth          : 16 bits
  94. Compression mode         : Lossy
  95. Delay relative to video      : 2 s 0 ms
  96. Stream size          : 456 MiB (2%)
  97. Title            : Paradox.2017.CHINESE.1080p.BluRay.REMUX.AVC.TrueHD.5.1-FGT
  98. Language           : Chinese
  99. Service kind         : Complete Main
  100. Default            : No
  101. Forced           : No

  102. Text #1
  103. ID             : 6
  104. Format           : PGS
  105. Muxing mode          : zlib
  106. Codec ID           : S_HDMV/PGS
  107. Codec ID/Info          : Picture based subtitle format used on BDs/HD-DVDs
  108. Title            : English-PGS
  109. Language           : English
  110. Default            : Yes
  111. Forced           : No

  112. Text #2
  113. ID             : 7
  114. Format           : PGS
  115. Muxing mode          : zlib
  116. Codec ID           : S_HDMV/PGS
  117. Codec ID/Info          : Picture based subtitle format used on BDs/HD-DVDs
  118. Title            : Chinese-PGS
  119. Language           : Chinese
  120. Default            : No
  121. Forced           : No

  122. Menu
  123. 00:00:00.000         : en:Chapter 01
  124. 00:05:33.750         : en:Chapter 02
  125. 00:08:15.791         : en:Chapter 03
  126. 00:15:38.083         : en:Chapter 04
  127. 00:21:03.000         : en:Chapter 05
  128. 00:26:10.541         : en:Chapter 06
  129. 00:31:39.458         : en:Chapter 07
  130. 00:34:52.625         : en:Chapter 08
  131. 00:39:21.416         : en:Chapter 09
  132. 00:42:39.666         : en:Chapter 10
  133. 00:49:57.416         : en:Chapter 11
  134. 00:57:54.666         : en:Chapter 12
  135. 01:01:49.000         : en:Chapter 13
  136. 01:05:26.375         : en:Chapter 14
  137. 01:07:53.541         : en:Chapter 15
  138. 01:16:09.958         : en:Chapter 16
  139. 01:21:17.375         : en:Chapter 17
  140. 01:25:44.375         : en:Chapter 18
  141. 01:30:39.000         : en:Chapter 19
  142. 01:36:36.916         : en:Chapter 20



复制代码
复制代码
112546fvdtdjyztvjcztdt.jpg 112547vxs1wsusfvdf9sdu.jpg 112548nwh1hjhy1iwkkxy7.jpg 112548bafxswxlxsxladss.jpg 112549tfc7ecz4z30lszes.jpg 112550gufett47ib3aabbe.jpg

                                






回复

使用道具 举报

蓝光币
1
发表于 2017-12-31 20:28:21 | 显示全部楼层
看起还可以呢     
回复

使用道具 举报

懒得打字嘛,点击右侧快捷回复 【右侧内容,后台自定义】
您需要登录后才可以回帖 登录 | 立即加入

本版积分规则

Archiver| |网站地图

Copyright © 2024 Comsenz Inc. Powered by 蓝光电影网

本站内容由用户自主分享和转载自互联网,转载目的在于传递更多信息,并不代表本网赞同其观点和对其真实性负责。

如有侵权、违反国家法律政策行为,请联系我们,我们会第一时间及时清除和处理!

举报反馈邮箱:4k1080.com@gmail.com

快速回复 返回顶部 返回列表