找回密码

查看: 3651|回复: 3

[科幻] 灵异空间/别闯阴阳界 Flatliners.2017.1080p.BluRay.REMUX.AVC.DTS-HD.MA.5.1-FGT 29.45GB

[复制链接]
蓝光币
2039
发表于 2017-12-21 23:05:42 | 显示全部楼层 |阅读模式
094731rez323j029913y1g.jpg
◎译  名 灵异空间/别闯阴阳界/脉搏探测器
◎片  名 Flatliners
◎年  代 2017
◎产  地 美国
◎类  别 剧情/科幻/惊悚
◎语  言 英语
◎上映日期 2017-09-29(美国)
◎IMDb评分5.0/10 from 9,362 users
◎IMDb链接http://www.imdb.com/title/tt2039338/
◎豆瓣评分 5.4/10 from 804 users
◎豆瓣链接 https://movie.douban.com/subject/26635304/
◎片  长 108分钟
◎导  演 涅尔斯·阿登·欧普勒夫 Niels Arden Oplev
◎主  演 艾伦·佩吉 Ellen Page
      迭戈·卢纳 Diego Luna
      妮娜·杜波夫 Nina Dobrev
      詹姆斯·诺顿 James Norton
      科雷西·克莱门斯 Kiersey Clemons
      基弗·萨瑟兰 Kiefer Sutherland
      麦迪逊·布里奇斯 Madison Brydges
      雅各布·索利 Jacob Soley
      安娜·阿尔丁 Anna Arden
      米格尔·安东尼 Miguel Anthony
      珍妮·雷文 Jenny Raven
      博·米尔乔夫 Beau Mirchoff
      夏洛特·麦金尼 Charlotte McKinney
      温蒂·拉奎尔·罗宾逊 Wendy Raquel Robinson
      史蒂夫·拜尔斯 Steve Byers
      泰勒·海涅斯 Tyler Hynes

◎简  介

  艾伦·佩吉(Ellen Page)正在洽商主演索尼哥伦比亚影业翻拍的1990年可骇片《灵异空间》(Flatliners),该片别名《别闯阴阳界》或《脉搏探测器》,将由瑞典版《龙纹身的女孩》导演涅尔斯·阿登·欧普勒夫(Niels Arden Oplev)执导、《源代码》(Source Code)编剧本·瑞普利(Ben Ripley)改编。
  《灵异空间》报告几个医学院的门生为了体验死后的感受停止了一项大胆的实验:他们瞬间停止心脏跳动和大脑性能,到达临床灭亡状态,然后很快规复。实验成功了,但他们始终没法忘怀那可骇的濒死体验,而且有些工具似乎也随着他们死而新生来到了阳世。


  1. Video
  2. ID             : 1
  3. Format           : AVC
  4. Format/Info          : Advanced Video Codec
  5. Format profile         : [email]High@L4.1[/email]
  6. Format settings        : CABAC / 2 Ref Frames
  7. Format settings, CABAC       : Yes
  8. Format settings, ReFrames      : 2 frames
  9. Format settings, GOP       : M=1, N=10
  10. Codec ID           : V_MPEG4/ISO/AVC
  11. Duration           : 1 h 49 min
  12. Bit rate mode          : Variable
  13. Bit rate           : 24.9 Mb/s
  14. Width            : 1 920 pixels
  15. Height           : 1 080 pixels
  16. Display aspect ratio       : 16:9
  17. Frame rate mode        : Constant
  18. Frame rate           : 23.976 (24000/1001) FPS
  19. Color space          : YUV
  20. Chroma subsampling       : 4:2:0
  21. Bit depth          : 8 bits
  22. Scan type          : Progressive
  23. Bits/(Pixel*Frame)       : 0.501
  24. Stream size          : 19.1GB (65%)
  25. Title            : Flatliners.2017.1080p.BluRay.REMUX.AVC.DTS-HD.MA.5.1-FGT
  26. Language           : English
  27. Default            : No
  28. Forced           : No

  29. Audio #1
  30. ID             : 2
  31. Format           : DTS
  32. Format/Info          : Digital Theater Systems
  33. Format profile         : MA / Core
  34. Codec ID           : A_DTS
  35. Duration           : 1 h 49 min
  36. Bit rate mode          : Variable / Constant
  37. Bit rate           : 2 196 kb/s / 1 509 kb/s
  38. Channel(s)           : 6 channels
  39. Channel positions        : Front: L C R, Side: L R, LFE
  40. Sampling rate          : 48.0 kHz
  41. Frame rate           : 93.750 FPS (512 SPF)
  42. Bit depth          : 16 bits
  43. Compression mode         : Lossless / Lossy
  44. Stream size          : 1.68GB (6%)
  45. Title            : Flatliners.2017.1080p.BluRay.REMUX.AVC.DTS-HD.MA.5.1-FGT
  46. Language           : English
  47. Default            : Yes
  48. Forced           : No

  49. Audio #2
  50. ID             : 3
  51. Format           : DTS
  52. Format/Info          : Digital Theater Systems
  53. Codec ID           : A_DTS
  54. Duration           : 1 h 49 min
  55. Bit rate mode          : Constant
  56. Bit rate           : 1 509 kb/s
  57. Channel(s)           : 6 channels
  58. Channel positions        : Front: L C R, Side: L R, LFE
  59. Sampling rate          : 48.0 kHz
  60. Frame rate           : 93.750 FPS (512 SPF)
  61. Bit depth          : 16 bits
  62. Compression mode         : Lossy
  63. Stream size          : 1.16GB (4%)
  64. Title            : Flatliners.2017.1080p.BluRay.REMUX.AVC.DTS-HD.MA.5.1-FGT
  65. Language           : English
  66. Default            : No
  67. Forced           : No

  68. Audio #3
  69. ID             : 4
  70. Format           : AC-3
  71. Format/Info          : Audio Coding 3
  72. Codec ID           : A_AC3
  73. Duration           : 1 h 49 min
  74. Bit rate mode          : Constant
  75. Bit rate           : 448 kb/s
  76. Channel(s)           : 6 channels
  77. Channel positions        : Front: L C R, Side: L R, LFE
  78. Sampling rate          : 48.0 kHz
  79. Frame rate           : 31.250 FPS (1536 SPF)
  80. Bit depth          : 16 bits
  81. Compression mode         : Lossy
  82. Stream size          : 352 MiB (1%)
  83. Title            : Flatliners.2017.1080p.BluRay.REMUX.AVC.DTS-HD.MA.5.1-FGT
  84. Language           : English
  85. Service kind         : Complete Main
  86. Default            : No
  87. Forced           : No

  88. Audio #4
  89. ID             : 5
  90. Format           : DTS
  91. Format/Info          : Digital Theater Systems
  92. Format profile         : MA / Core
  93. Codec ID           : A_DTS
  94. Duration           : 1 h 49 min
  95. Bit rate mode          : Variable / Constant
  96. Bit rate           : 2 198 kb/s / 1 509 kb/s
  97. Channel(s)           : 6 channels
  98. Channel positions        : Front: L C R, Side: L R, LFE
  99. Sampling rate          : 48.0 kHz
  100. Frame rate           : 93.750 FPS (512 SPF)
  101. Bit depth          : 16 bits
  102. Compression mode         : Lossless / Lossy
  103. Stream size          : 1.69GB (6%)
  104. Title            : Flatliners.2017.1080p.BluRay.REMUX.AVC.DTS-HD.MA.5.1-FGT
  105. Language           : French
  106. Default            : No
  107. Forced           : No

  108. Audio #5
  109. ID             : 6
  110. Format           : DTS
  111. Format/Info          : Digital Theater Systems
  112. Codec ID           : A_DTS
  113. Duration           : 1 h 49 min
  114. Bit rate mode          : Constant
  115. Bit rate           : 1 509 kb/s
  116. Channel(s)           : 6 channels
  117. Channel positions        : Front: L C R, Side: L R, LFE
  118. Sampling rate          : 48.0 kHz
  119. Frame rate           : 93.750 FPS (512 SPF)
  120. Bit depth          : 16 bits
  121. Compression mode         : Lossy
  122. Stream size          : 1.16GB (4%)
  123. Title            : Flatliners.2017.1080p.BluRay.REMUX.AVC.DTS-HD.MA.5.1-FGT
  124. Language           : French
  125. Default            : No
  126. Forced           : No

  127. Audio #6
  128. ID             : 7
  129. Format           : AC-3
  130. Format/Info          : Audio Coding 3
  131. Codec ID           : A_AC3
  132. Duration           : 1 h 49 min
  133. Bit rate mode          : Constant
  134. Bit rate           : 448 kb/s
  135. Channel(s)           : 6 channels
  136. Channel positions        : Front: L C R, Side: L R, LFE
  137. Sampling rate          : 48.0 kHz
  138. Frame rate           : 31.250 FPS (1536 SPF)
  139. Bit depth          : 16 bits
  140. Compression mode         : Lossy
  141. Stream size          : 352 MiB (1%)
  142. Title            : Flatliners.2017.1080p.BluRay.REMUX.AVC.DTS-HD.MA.5.1-FGT
  143. Language           : French
  144. Service kind         : Complete Main
  145. Default            : No
  146. Forced           : No

  147. Audio #7
  148. ID             : 8
  149. Format           : DTS
  150. Format/Info          : Digital Theater Systems
  151. Format profile         : MA / Core
  152. Codec ID           : A_DTS
  153. Duration           : 1 h 49 min
  154. Bit rate mode          : Variable / Constant
  155. Bit rate           : 2 194 kb/s / 1 509 kb/s
  156. Channel(s)           : 6 channels
  157. Channel positions        : Front: L C R, Side: L R, LFE
  158. Sampling rate          : 48.0 kHz
  159. Frame rate           : 93.750 FPS (512 SPF)
  160. Bit depth          : 16 bits
  161. Compression mode         : Lossless / Lossy
  162. Stream size          : 1.68GB (6%)
  163. Title            : Flatliners.2017.1080p.BluRay.REMUX.AVC.DTS-HD.MA.5.1-FGT
  164. Language           : Portuguese
  165. Default            : No
  166. Forced           : No

  167. Audio #8
  168. ID             : 9
  169. Format           : DTS
  170. Format/Info          : Digital Theater Systems
  171. Codec ID           : A_DTS
  172. Duration           : 1 h 49 min
  173. Bit rate mode          : Constant
  174. Bit rate           : 1 509 kb/s
  175. Channel(s)           : 6 channels
  176. Channel positions        : Front: L C R, Side: L R, LFE
  177. Sampling rate          : 48.0 kHz
  178. Frame rate           : 93.750 FPS (512 SPF)
  179. Bit depth          : 16 bits
  180. Compression mode         : Lossy
  181. Stream size          : 1.16GB (4%)
  182. Title            : Flatliners.2017.1080p.BluRay.REMUX.AVC.DTS-HD.MA.5.1-FGT
  183. Language           : Portuguese
  184. Default            : No
  185. Forced           : No

  186. Audio #9
  187. ID             : 10
  188. Format           : AC-3
  189. Format/Info          : Audio Coding 3
  190. Codec ID           : A_AC3
  191. Duration           : 1 h 49 min
  192. Bit rate mode          : Constant
  193. Bit rate           : 640 kb/s
  194. Channel(s)           : 6 channels
  195. Channel positions        : Front: L C R, Side: L R, LFE
  196. Sampling rate          : 48.0 kHz
  197. Frame rate           : 31.250 FPS (1536 SPF)
  198. Bit depth          : 16 bits
  199. Compression mode         : Lossy
  200. Stream size          : 503 MiB (2%)
  201. Title            : Flatliners.2017.1080p.BluRay.REMUX.AVC.DTS-HD.MA.5.1-FGT
  202. Language           : Spanish
  203. Service kind         : Complete Main
  204. Default            : No
  205. Forced           : No

  206. Audio #10
  207. ID             : 11
  208. Format           : AC-3
  209. Format/Info          : Audio Coding 3
  210. Codec ID           : A_AC3
  211. Duration           : 1 h 49 min
  212. Bit rate mode          : Constant
  213. Bit rate           : 640 kb/s
  214. Channel(s)           : 6 channels
  215. Channel positions        : Front: L C R, Side: L R, LFE
  216. Sampling rate          : 48.0 kHz
  217. Frame rate           : 31.250 FPS (1536 SPF)
  218. Bit depth          : 16 bits
  219. Compression mode         : Lossy
  220. Stream size          : 503 MiB (2%)
  221. Title            : Flatliners.2017.1080p.BluRay.REMUX.AVC.DTS-HD.MA.5.1-FGT
  222. Language           : Thai
  223. Service kind         : Complete Main
  224. Default            : No
  225. Forced           : No

  226. Text #1
  227. ID             : 12
  228. Format           : PGS
  229. Muxing mode          : zlib
  230. Codec ID           : S_HDMV/PGS
  231. Codec ID/Info          : Picture based subtitle format used on BDs/HD-DVDs
  232. Duration           : 1 h 46 min
  233. Bit rate           : 49.1 kb/s
  234. Count of elements        : 3400
  235. Stream size          : 37.4 MiB (0%)
  236. Title            : English-PGS
  237. Language           : English
  238. Default            : No
  239. Forced           : No

  240. Text #2
  241. ID             : 13
  242. Format           : PGS
  243. Muxing mode          : zlib
  244. Codec ID           : S_HDMV/PGS
  245. Codec ID/Info          : Picture based subtitle format used on BDs/HD-DVDs
  246. Duration           : 1 h 43 min
  247. Bit rate           : 36.3 kb/s
  248. Count of elements        : 2482
  249. Stream size          : 26.9 MiB (0%)
  250. Title            : English-SDH-PGS
  251. Language           : English
  252. Default            : No
  253. Forced           : No

  254. Text #3
  255. ID             : 14
  256. Format           : PGS
  257. Muxing mode          : zlib
  258. Codec ID           : S_HDMV/PGS
  259. Codec ID/Info          : Picture based subtitle format used on BDs/HD-DVDs
  260. Duration           : 1 h 48 min
  261. Bit rate           : 24.0 kb/s
  262. Count of elements        : 2182
  263. Stream size          : 18.5 MiB (0%)
  264. Title            : Chinese-PGS
  265. Language           : Chinese
  266. Default            : No
  267. Forced           : No

  268. Text #4
  269. ID             : 15
  270. Format           : PGS
  271. Muxing mode          : zlib
  272. Codec ID           : S_HDMV/PGS
  273. Codec ID/Info          : Picture based subtitle format used on BDs/HD-DVDs
  274. Duration           : 1 h 48 min
  275. Bit rate           : 23.9 kb/s
  276. Count of elements        : 2192
  277. Stream size          : 18.5 MiB (0%)
  278. Title            : Chinese-PGS
  279. Language           : Chinese
  280. Default            : No
  281. Forced           : No

  282. Text #5
  283. ID             : 16
  284. Format           : PGS
  285. Muxing mode          : zlib
  286. Codec ID           : S_HDMV/PGS
  287. Codec ID/Info          : Picture based subtitle format used on BDs/HD-DVDs
  288. Duration           : 1 h 48 min
  289. Bit rate           : 28.1 kb/s
  290. Count of elements        : 2526
  291. Stream size          : 21.7 MiB (0%)
  292. Title            : Chinese-PGS
  293. Language           : Chinese
  294. Default            : No
  295. Forced           : No

  296. Text #6
  297. ID             : 17
  298. Format           : PGS
  299. Muxing mode          : zlib
  300. Codec ID           : S_HDMV/PGS
  301. Codec ID/Info          : Picture based subtitle format used on BDs/HD-DVDs
  302. Duration           : 1 h 48 min
  303. Bit rate           : 34.7 kb/s
  304. Count of elements        : 2202
  305. Stream size          : 26.8 MiB (0%)
  306. Title            : Indonesian-PGS
  307. Language           : Indonesian
  308. Default            : No
  309. Forced           : No

  310. Text #7
  311. ID             : 18
  312. Format           : PGS
  313. Muxing mode          : zlib
  314. Codec ID           : S_HDMV/PGS
  315. Codec ID/Info          : Picture based subtitle format used on BDs/HD-DVDs
  316. Duration           : 1 h 48 min
  317. Bit rate           : 24.9 kb/s
  318. Count of elements        : 2524
  319. Stream size          : 19.2 MiB (0%)
  320. Title            : Korean-PGS
  321. Language           : Korean
  322. Default            : No
  323. Forced           : No

  324. Text #8
  325. ID             : 19
  326. Format           : PGS
  327. Muxing mode          : zlib
  328. Codec ID           : S_HDMV/PGS
  329. Codec ID/Info          : Picture based subtitle format used on BDs/HD-DVDs
  330. Duration           : 1 h 48 min
  331. Bit rate           : 32.1 kb/s
  332. Count of elements        : 2184
  333. Stream size          : 24.8 MiB (0%)
  334. Title            : Malay-PGS
  335. Language           : Malay
  336. Default            : No
  337. Forced           : No

  338. Text #9
  339. ID             : 20
  340. Format           : PGS
  341. Muxing mode          : zlib
  342. Codec ID           : S_HDMV/PGS
  343. Codec ID/Info          : Picture based subtitle format used on BDs/HD-DVDs
  344. Duration           : 1 h 46 min
  345. Bit rate           : 34.1 kb/s
  346. Count of elements        : 2238
  347. Stream size          : 26.1 MiB (0%)
  348. Title            : Portuguese-PGS
  349. Language           : Portuguese
  350. Default            : No
  351. Forced           : No

  352. Text #10
  353. ID             : 21
  354. Format           : PGS
  355. Muxing mode          : zlib
  356. Codec ID           : S_HDMV/PGS
  357. Codec ID/Info          : Picture based subtitle format used on BDs/HD-DVDs
  358. Duration           : 1 h 46 min
  359. Bit rate           : 226 b/s
  360. Count of elements        : 18
  361. Stream size          : 177 KiB (0%)
  362. Title            : Portuguese-FORCED-PGS
  363. Language           : Portuguese
  364. Default            : No
  365. Forced           : No

  366. Text #11
  367. ID             : 22
  368. Format           : PGS
  369. Muxing mode          : zlib
  370. Codec ID           : S_HDMV/PGS
  371. Codec ID/Info          : Picture based subtitle format used on BDs/HD-DVDs
  372. Duration           : 1 h 47 min
  373. Bit rate           : 31.4 kb/s
  374. Count of elements        : 2210
  375. Stream size          : 24.2 MiB (0%)
  376. Title            : Spanish-PGS
  377. Language           : Spanish
  378. Default            : No
  379. Forced           : No

  380. Text #12
  381. ID             : 23
  382. Format           : PGS
  383. Muxing mode          : zlib
  384. Codec ID           : S_HDMV/PGS
  385. Codec ID/Info          : Picture based subtitle format used on BDs/HD-DVDs
  386. Duration           : 1 h 47 min
  387. Bit rate           : 329 b/s
  388. Count of elements        : 26
  389. Stream size          : 260 KiB (0%)
  390. Title            : Spanish-FORCED-PGS
  391. Language           : Spanish
  392. Default            : No
  393. Forced           : No

  394. Text #13
  395. ID             : 24
  396. Format           : PGS
  397. Muxing mode          : zlib
  398. Codec ID           : S_HDMV/PGS
  399. Codec ID/Info          : Picture based subtitle format used on BDs/HD-DVDs
  400. Duration           : 1 h 48 min
  401. Bit rate           : 27.5 kb/s
  402. Count of elements        : 2526
  403. Stream size          : 21.3 MiB (0%)
  404. Title            : Thai-PGS
  405. Language           : Thai
  406. Default            : No
  407. Forced           : No

  408. Text #14
  409. ID             : 25
  410. Format           : PGS
  411. Muxing mode          : zlib
  412. Codec ID           : S_HDMV/PGS
  413. Codec ID/Info          : Picture based subtitle format used on BDs/HD-DVDs
  414. Duration           : 1 h 48 min
  415. Bit rate           : 37.6 kb/s
  416. Count of elements        : 2294
  417. Stream size          : 29.0 MiB (0%)
  418. Title            : Vietnamese-PGS
  419. Language           : Vietnamese
  420. Default            : No
  421. Forced           : No

  422. Text #15
  423. ID             : 26
  424. Format           : PGS
  425. Muxing mode          : zlib
  426. Codec ID           : S_HDMV/PGS
  427. Codec ID/Info          : Picture based subtitle format used on BDs/HD-DVDs
  428. Duration           : 1 h 47 min
  429. Bit rate           : 70 b/s
  430. Count of elements        : 6
  431. Stream size          : 55.9 KiB (0%)
  432. Title            : French-PGS
  433. Language           : French
  434. Default            : No
  435. Forced           : No

  436. Text #16
  437. ID             : 27
  438. Format           : PGS
  439. Muxing mode          : zlib
  440. Codec ID           : S_HDMV/PGS
  441. Codec ID/Info          : Picture based subtitle format used on BDs/HD-DVDs
  442. Duration           : 1 h 47 min
  443. Bit rate           : 70 b/s
  444. Count of elements        : 6
  445. Stream size          : 55.9 KiB (0%)
  446. Title            : French-FORCED-PGS
  447. Language           : French
  448. Default            : No
  449. Forced           : No

  450. Menu
  451. 00:00:00.000         : en:Chapter 01
  452. 00:05:48.556         : en:Chapter 02
  453. 00:11:20.805         : en:Chapter 03
  454. 00:18:01.080         : en:Chapter 04
  455. 00:26:41.600         : en:Chapter 05
  456. 00:35:10.358         : en:Chapter 06
  457. 00:42:31.382         : en:Chapter 07
  458. 00:48:11.138         : en:Chapter 08
  459. 00:55:32.370         : en:Chapter 09
  460. 01:03:49.992         : en:Chapter 10
  461. 01:09:43.262         : en:Chapter 11
  462. 01:16:20.826         : en:Chapter 12
  463. 01:24:18.011         : en:Chapter 13
  464. 01:30:00.186         : en:Chapter 14
  465. 01:36:05.926         : en:Chapter 15
  466. 01:41:54.483         : en:Chapter 16



复制代码
复制代码
094732bloof7464c94p702.jpg 094732sjwqjijxg5qsc8c6.jpg 094733ynxbmbuxub5qugxx.jpg 094734azy2n5tl1lyo56wc.jpg 094734e4e31t1du1tfe5v1.jpg 094735ygl55olf4g0puxl9.jpg

                                




回复

使用道具 举报

蓝光币
1848
发表于 2017-12-29 17:02:33 | 显示全部楼层
谢谢分享谢谢分享
回复

使用道具 举报

懒得打字嘛,点击右侧快捷回复 【右侧内容,后台自定义】
您需要登录后才可以回帖 登录 | 立即加入

本版积分规则

Archiver| |网站地图

Copyright © 2024 Comsenz Inc. Powered by 蓝光电影网

本站内容由用户自主分享和转载自互联网,转载目的在于传递更多信息,并不代表本网赞同其观点和对其真实性负责。

如有侵权、违反国家法律政策行为,请联系我们,我们会第一时间及时清除和处理!

举报反馈邮箱:4k1080.com@gmail.com

快速回复 返回顶部 返回列表