找回密码

查看: 4112|回复: 3

[剧情] 小丑回魂/它 It.2017.1080p.BluRay.REMUX.AVC.DTS-HD.MA.TrueHD.7.1.Atmos-FGT 34.97GB

[复制链接]
蓝光币
1974
发表于 2017-12-21 23:06:05 | 显示全部楼层 |阅读模式
180748boyrqo2mkpyosnrs.jpg
◎译  名 小丑回魂/它
◎片  名 It
◎年  代 2017
◎产  地 美国/加拿大
◎类  别 剧情/儿童/可骇
◎语  言 英语
◎上映日期 2017-08-29(伦敦可骇电影节)/2017-09-08(美国)
◎IMDb评分7.7/10 from 192,169 users
◎IMDb链接http://www.imdb.com/title/tt1396484/
◎豆瓣评分 7.4/10 from 43,737 users
◎豆瓣链接 https://movie.douban.com/subject/3604148/
◎片  长 135分钟
◎导  演 安德斯·穆斯切蒂 Andrés Muschietti
◎主  演 比尔·斯卡斯加德 Bill Skarsg?rd
      杰顿·李博赫 Jaeden Lieberher
      杰里米·雷·泰勒 Jeremy Ray Taylor
      索菲娅·利利斯 Sophia Lillis
      菲恩·伍法德 Finn Wolfhard
      俦森·雅可布 Chosen Jacobs
      杰克·迪伦·格拉泽 Jack Dylan Grazer
      瓦耶特·奥莱夫 Wyatt Oleff
      杰克逊·罗伯特·斯科特 JacksonRobert Scott
      尼古拉斯·汉密尔顿 Nicholas Hamilton
      杰克·辛 Jake Sim
      洛根·汤普森 Logan Thompson
      欧文·泰格 Owen Teague
      斯蒂夫·博加尔特 Stephen Bogaert
      斯图尔特·休斯 Stuart Hughes
      杰弗里·庞塞特 Geoffrey Pounsett
      皮普·德怀尔 Pip Dwyer
      莫莉·阿特金森 Molly Atkinson
      史蒂文·威廉姆斯 Steven Williams
      伊丽莎白·桑德斯 Elizabeth Saunders
      梅根·查彭提尔 Megan Charpentier
      安东尼·尤埃西 Anthony Ulc
      哈维尔·博泰特 Javier Botet
      伊莎贝尔·内利瑟 Isabelle Nélisse
      尼尔·克容 Neil Crone

◎简  介

  1989年,位于缅因州的德里市,正被可骇的阴影所覆盖。从上一年起头,儿童失落案接连发生,似乎某个可怕的未知存在悄悄来到了人们中心。痛失弟弟的少年比利(杰顿·李博赫 Jaeden Lieberher 饰),决议和艾迪、瑞奇、史丹利等伙伴操纵暑假寻觅弟弟乔治的着落。未几以后,遭小好人们欺侮的小胖子本、被疯传汗漫的坏女孩贝弗莉以及怙恃死于大火的孤儿麦克相继加入这个遭到嗤笑的窝囊废同盟。在这一进程中,他们履历了连续串的超自然的可骇体验。少年们发现,在这个被诅咒的城市,每隔27年非一般灭亡人数就会飙升。狞笑着的小丑(比尔·斯卡斯加德 Bill Skarsg?rd 饰),深入每小我的心底,挖掘他们最恐惧的部分……
  本片按照斯蒂芬·金的同名原著改编。

◎获奖情况

  第23届美国批评家挑选电影奖(2018)
  最好科幻/可骇片(提名)


  1. Video
  2. ID             : 1
  3. Format           : AVC
  4. Format/Info          : Advanced Video Codec
  5. Format profile         : [email]High@L4.1[/email]
  6. Format settings        : CABAC / 4 Ref Frames
  7. Format settings, CABAC       : Yes
  8. Format settings, ReFrames      : 4 frames
  9. Codec ID           : V_MPEG4/ISO/AVC
  10. Duration           : 2 h 14 min
  11. Bit rate mode          : Variable
  12. Bit rate           : 23.8 Mb/s
  13. Maximum bit rate         : 30.0 Mb/s
  14. Width            : 1 920 pixels
  15. Height           : 1 080 pixels
  16. Display aspect ratio       : 16:9
  17. Frame rate mode        : Constant
  18. Frame rate           : 23.976 (24000/1001) FPS
  19. Color space          : YUV
  20. Chroma subsampling       : 4:2:0
  21. Bit depth          : 8 bits
  22. Scan type          : Progressive
  23. Bits/(Pixel*Frame)       : 0.478
  24. Stream size          : 22.4GB (64%)
  25. Title            : It.2017.1080p.BluRay.REMUX.AVC.DTS-HD.MA.TrueHD.7.1.Atmos-FGT
  26. Language           : English
  27. Default            : No
  28. Forced           : No

  29. Audio #1
  30. ID             : 2
  31. Format           : TrueHD
  32. Format profile         : TrueHD+Atmos / TrueHD
  33. Codec ID           : A_TRUEHD
  34. Duration           : 2 h 14 min
  35. Bit rate mode          : Variable
  36. Bit rate           : 3 783 kb/s
  37. Maximum bit rate         : 7 701 kb/s
  38. Channel(s)           : Object Based / 8 channels
  39. Channel positions        : Object Based / Front: L C R, Side: L R, Back: L R, LFE
  40. Sampling rate          :/ 48.0 kHz
  41. Frame rate           : 1 200.000 FPS (40 SPF)
  42. Compression mode         : Lossless
  43. Stream size          : 3.56GB (10%)
  44. Title            : It.2017.1080p.BluRay.REMUX.AVC.DTS-HD.MA.TrueHD.7.1.Atmos-FGT
  45. Language           : English
  46. Default            : Yes
  47. Forced           : No

  48. Audio #2
  49. ID             : 3
  50. Format           : DTS
  51. Format/Info          : Digital Theater Systems
  52. Format profile         : MA / Core
  53. Codec ID           : A_DTS
  54. Duration           : 2 h 14 min
  55. Bit rate mode          : Variable / Constant
  56. Bit rate           : 3 840 kb/s / 1 509 kb/s
  57. Channel(s)           : 8 channels / 6 channels
  58. Channel positions        : Front: L C R, Side: L R, Back: L R, LFE / Front: L C R, Side: L R, LFE
  59. Sampling rate          : 48.0 kHz
  60. Frame rate           : 93.750 FPS (512 SPF)
  61. Bit depth          : 24 bits
  62. Compression mode         : Lossless / Lossy
  63. Stream size          : 3.67GB (10%)
  64. Title            : It.2017.1080p.BluRay.REMUX.AVC.DTS-HD.MA.TrueHD.7.1.Atmos-FGT
  65. Language           : English
  66. Default            : No
  67. Forced           : No

  68. Audio #3
  69. ID             : 4
  70. Format           : AC-3
  71. Format/Info          : Audio Coding 3
  72. Codec ID           : A_AC3
  73. Duration           : 2 h 14 min
  74. Bit rate mode          : Constant
  75. Bit rate           : 448 kb/s
  76. Channel(s)           : 6 channels
  77. Channel positions        : Front: L C R, Side: L R, LFE
  78. Sampling rate          : 48.0 kHz
  79. Frame rate           : 31.250 FPS (1536 SPF)
  80. Bit depth          : 16 bits
  81. Compression mode         : Lossy
  82. Stream size          : 432 MiB (1%)
  83. Title            : It.2017.1080p.BluRay.REMUX.AVC.DTS-HD.MA.TrueHD.7.1.Atmos-FGT
  84. Language           : English
  85. Service kind         : Complete Main
  86. Default            : No
  87. Forced           : No

  88. Audio #4
  89. ID             : 5
  90. Format           : DTS
  91. Format/Info          : Digital Theater Systems
  92. Format profile         : MA / Core
  93. Codec ID           : A_DTS
  94. Duration           : 2 h 14 min
  95. Bit rate mode          : Variable / Constant
  96. Bit rate           : 2 274 kb/s / 1 509 kb/s
  97. Channel(s)           : 6 channels
  98. Channel positions        : Front: L C R, Side: L R, LFE
  99. Sampling rate          : 48.0 kHz
  100. Frame rate           : 93.750 FPS (512 SPF)
  101. Bit depth          : 16 bits
  102. Compression mode         : Lossless / Lossy
  103. Stream size          : 2.14GB (6%)
  104. Title            : It.2017.1080p.BluRay.REMUX.AVC.DTS-HD.MA.TrueHD.7.1.Atmos-FGT
  105. Language           : English
  106. Default            : No
  107. Forced           : No

  108. Audio #5
  109. ID             : 6
  110. Format           : DTS
  111. Format/Info          : Digital Theater Systems
  112. Codec ID           : A_DTS
  113. Duration           : 2 h 14 min
  114. Bit rate mode          : Constant
  115. Bit rate           : 1 509 kb/s
  116. Channel(s)           : 6 channels
  117. Channel positions        : Front: L C R, Side: L R, LFE
  118. Sampling rate          : 48.0 kHz
  119. Frame rate           : 93.750 FPS (512 SPF)
  120. Bit depth          : 16 bits
  121. Compression mode         : Lossy
  122. Stream size          : 1.42GB (4%)
  123. Title            : It.2017.1080p.BluRay.REMUX.AVC.DTS-HD.MA.TrueHD.7.1.Atmos-FGT
  124. Language           : English
  125. Default            : No
  126. Forced           : No

  127. Audio #6
  128. ID             : 7
  129. Format           : AC-3
  130. Format/Info          : Audio Coding 3
  131. Codec ID           : A_AC3
  132. Duration           : 2 h 14 min
  133. Bit rate mode          : Constant
  134. Bit rate           : 448 kb/s
  135. Channel(s)           : 6 channels
  136. Channel positions        : Front: L C R, Side: L R, LFE
  137. Sampling rate          : 48.0 kHz
  138. Frame rate           : 31.250 FPS (1536 SPF)
  139. Bit depth          : 16 bits
  140. Compression mode         : Lossy
  141. Stream size          : 432 MiB (1%)
  142. Title            : It.2017.1080p.BluRay.REMUX.AVC.DTS-HD.MA.TrueHD.7.1.Atmos-FGT
  143. Language           : English
  144. Service kind         : Complete Main
  145. Default            : No
  146. Forced           : No

  147. Audio #7
  148. ID             : 8
  149. Format           : AC-3
  150. Format/Info          : Audio Coding 3
  151. Codec ID           : A_AC3
  152. Duration           : 2 h 14 min
  153. Bit rate mode          : Constant
  154. Bit rate           : 448 kb/s
  155. Channel(s)           : 6 channels
  156. Channel positions        : Front: L C R, Side: L R, LFE
  157. Sampling rate          : 48.0 kHz
  158. Frame rate           : 31.250 FPS (1536 SPF)
  159. Bit depth          : 16 bits
  160. Compression mode         : Lossy
  161. Stream size          : 432 MiB (1%)
  162. Title            : It.2017.1080p.BluRay.REMUX.AVC.DTS-HD.MA.TrueHD.7.1.Atmos-FGT
  163. Language           : Spanish
  164. Service kind         : Complete Main
  165. Default            : No
  166. Forced           : No

  167. Audio #8
  168. ID             : 9
  169. Format           : AC-3
  170. Format/Info          : Audio Coding 3
  171. Codec ID           : A_AC3
  172. Duration           : 2 h 14 min
  173. Bit rate mode          : Constant
  174. Bit rate           : 448 kb/s
  175. Channel(s)           : 6 channels
  176. Channel positions        : Front: L C R, Side: L R, LFE
  177. Sampling rate          : 48.0 kHz
  178. Frame rate           : 31.250 FPS (1536 SPF)
  179. Bit depth          : 16 bits
  180. Compression mode         : Lossy
  181. Stream size          : 432 MiB (1%)
  182. Title            : It.2017.1080p.BluRay.REMUX.AVC.DTS-HD.MA.TrueHD.7.1.Atmos-FGT
  183. Language           : Hindi
  184. Service kind         : Complete Main
  185. Default            : No
  186. Forced           : No

  187. Text #1
  188. ID             : 10
  189. Format           : PGS
  190. Muxing mode          : zlib
  191. Codec ID           : S_HDMV/PGS
  192. Codec ID/Info          : Picture based subtitle format used on BDs/HD-DVDs
  193. Duration           : 2 h 14 min
  194. Bit rate           : 31.9 kb/s
  195. Count of elements        : 3677
  196. Stream size          : 30.7 MiB (0%)
  197. Title            : English-PGS
  198. Language           : English
  199. Default            : Yes
  200. Forced           : No

  201. Text #2
  202. ID             : 11
  203. Format           : PGS
  204. Muxing mode          : zlib
  205. Codec ID           : S_HDMV/PGS
  206. Codec ID/Info          : Picture based subtitle format used on BDs/HD-DVDs
  207. Duration           : 2 h 13 min
  208. Bit rate           : 20.7 kb/s
  209. Count of elements        : 2550
  210. Stream size          : 19.7 MiB (0%)
  211. Title            : Spanish-PGS
  212. Language           : Spanish
  213. Default            : No
  214. Forced           : No

  215. Text #3
  216. ID             : 12
  217. Format           : PGS
  218. Muxing mode          : zlib
  219. Codec ID           : S_HDMV/PGS
  220. Codec ID/Info          : Picture based subtitle format used on BDs/HD-DVDs
  221. Duration           : 2 h 13 min
  222. Bit rate           : 22.4 kb/s
  223. Count of elements        : 2829
  224. Stream size          : 21.4 MiB (0%)
  225. Title            : Bulgarian-PGS
  226. Language           : Bulgarian
  227. Default            : No
  228. Forced           : No

  229. Text #4
  230. ID             : 13
  231. Format           : PGS
  232. Muxing mode          : zlib
  233. Codec ID           : S_HDMV/PGS
  234. Codec ID/Info          : Picture based subtitle format used on BDs/HD-DVDs
  235. Duration           : 2 h 13 min
  236. Bit rate           : 21.9 kb/s
  237. Count of elements        : 2765
  238. Stream size          : 20.8 MiB (0%)
  239. Title            : Croatian-PGS
  240. Language           : Croatian
  241. Default            : No
  242. Forced           : No

  243. Text #5
  244. ID             : 14
  245. Format           : PGS
  246. Muxing mode          : zlib
  247. Codec ID           : S_HDMV/PGS
  248. Codec ID/Info          : Picture based subtitle format used on BDs/HD-DVDs
  249. Duration           : 2 h 13 min
  250. Bit rate           : 23.1 kb/s
  251. Count of elements        : 2803
  252. Stream size          : 22.1 MiB (0%)
  253. Title            : Estonian-PGS
  254. Language           : Estonian
  255. Default            : No
  256. Forced           : No

  257. Text #6
  258. ID             : 15
  259. Format           : PGS
  260. Muxing mode          : zlib
  261. Codec ID           : S_HDMV/PGS
  262. Codec ID/Info          : Picture based subtitle format used on BDs/HD-DVDs
  263. Duration           : 2 h 13 min
  264. Bit rate           : 23.6 kb/s
  265. Count of elements        : 2811
  266. Stream size          : 22.5 MiB (0%)
  267. Title            : Greek-PGS
  268. Language           : Greek
  269. Default            : No
  270. Forced           : No

  271. Text #7
  272. ID             : 16
  273. Format           : PGS
  274. Muxing mode          : zlib
  275. Codec ID           : S_HDMV/PGS
  276. Codec ID/Info          : Picture based subtitle format used on BDs/HD-DVDs
  277. Duration           : 2 h 13 min
  278. Bit rate           : 19.2 kb/s
  279. Count of elements        : 2823
  280. Stream size          : 18.3 MiB (0%)
  281. Title            : Hebrew-PGS
  282. Language           : Hebrew
  283. Default            : No
  284. Forced           : No

  285. Text #8
  286. ID             : 17
  287. Format           : PGS
  288. Muxing mode          : zlib
  289. Codec ID           : S_HDMV/PGS
  290. Codec ID/Info          : Picture based subtitle format used on BDs/HD-DVDs
  291. Duration           : 2 h 13 min
  292. Bit rate           : 21.6 kb/s
  293. Count of elements        : 2825
  294. Stream size          : 20.6 MiB (0%)
  295. Title            : Latvian-PGS
  296. Language           : Latvian
  297. Default            : No
  298. Forced           : No

  299. Text #9
  300. ID             : 18
  301. Format           : PGS
  302. Muxing mode          : zlib
  303. Codec ID           : S_HDMV/PGS
  304. Codec ID/Info          : Picture based subtitle format used on BDs/HD-DVDs
  305. Duration           : 2 h 13 min
  306. Bit rate           : 21.4 kb/s
  307. Count of elements        : 2745
  308. Stream size          : 20.4 MiB (0%)
  309. Title            : Lithuanian-PGS
  310. Language           : Lithuanian
  311. Default            : No
  312. Forced           : No

  313. Text #10
  314. ID             : 19
  315. Format           : PGS
  316. Muxing mode          : zlib
  317. Codec ID           : S_HDMV/PGS
  318. Codec ID/Info          : Picture based subtitle format used on BDs/HD-DVDs
  319. Duration           : 2 h 13 min
  320. Bit rate           : 19.1 kb/s
  321. Count of elements        : 2023
  322. Stream size          : 18.2 MiB (0%)
  323. Title            : Slovenian-PGS
  324. Language           : Slovenian
  325. Default            : No
  326. Forced           : No

  327. Text #11
  328. ID             : 20
  329. Format           : PGS
  330. Muxing mode          : zlib
  331. Codec ID           : S_HDMV/PGS
  332. Codec ID/Info          : Picture based subtitle format used on BDs/HD-DVDs
  333. Duration           : 2 h 12 min
  334. Bit rate           : 331 b/s
  335. Count of elements        : 38
  336. Stream size          : 322 KiB (0%)
  337. Title            : Spanish-PGS
  338. Language           : Spanish
  339. Default            : No
  340. Forced           : No

  341. Text #12
  342. ID             : 21
  343. Format           : PGS
  344. Muxing mode          : zlib
  345. Codec ID           : S_HDMV/PGS
  346. Codec ID/Info          : Picture based subtitle format used on BDs/HD-DVDs
  347. Duration           : 2 h 12 min
  348. Bit rate           : 667 b/s
  349. Count of elements        : 100
  350. Stream size          : 649 KiB (0%)
  351. Title            : Hindi-PGS
  352. Language           : Hindi
  353. Default            : No
  354. Forced           : No

  355. Menu
  356. 00:00:00.000         : en:Chapter 01
  357. 00:09:23.646         : en:Chapter 02
  358. 00:18:31.860         : en:Chapter 03
  359. 00:28:26.162         : en:Chapter 04
  360. 00:38:36.981         : en:Chapter 05
  361. 00:48:19.438         : en:Chapter 06
  362. 00:59:30.775         : en:Chapter 07
  363. 01:08:52.795         : en:Chapter 08
  364. 01:16:58.822         : en:Chapter 09
  365. 01:26:52.957         : en:Chapter 10
  366. 01:38:15.306         : en:Chapter 11
  367. 01:48:40.972         : en:Chapter 12
  368. 02:04:07.898         : en:Chapter 13
  369. 02:09:05.654         : en:Chapter 14



复制代码
复制代码
180748qbdbjdda4j9ldjbj.jpg 180749eouf7pzx8505rfmg.jpg 180750gsqrw55q7wqwi9i9.jpg 180750ncs4w2vsgiombvob.jpg 180751mknnz32n98njkkon.jpg 180752hgnegzgcywn7weqj.jpg

                                



回复

使用道具 举报

蓝光币
299
发表于 2019-12-4 13:46:51 | 显示全部楼层
谢谢楼主分享!
回复

使用道具 举报

蓝光币
299
发表于 2019-12-4 13:50:08 | 显示全部楼层
谢谢楼主分享!
回复

使用道具 举报

蓝光币
299
发表于 2019-12-4 13:51:09 | 显示全部楼层
谢谢楼主分享!
回复

使用道具 举报

懒得打字嘛,点击右侧快捷回复 【右侧内容,后台自定义】
您需要登录后才可以回帖 登录 | 立即加入

本版积分规则

Archiver| |网站地图

Copyright © 2024 Comsenz Inc. Powered by 蓝光电影网

本站内容由用户自主分享和转载自互联网,转载目的在于传递更多信息,并不代表本网赞同其观点和对其真实性负责。

如有侵权、违反国家法律政策行为,请联系我们,我们会第一时间及时清除和处理!

举报反馈邮箱:4k1080.com@gmail.com

快速回复 返回顶部 返回列表