找回密码

查看: 2898|回复: 1

决战犹马镇/决斗尤马镇 3.10.to.Yuma.2007.2160p.BluRay.REMUX.HEVC.DTS-X.7.1-FGT 74.68GB

[复制链接]
蓝光币
1992
发表于 2017-12-22 16:43:35 | 显示全部楼层 |阅读模式
决战犹马镇/决战尤马镇 3.10.to.Yuma.2007.2160p.BluRay.REMUX.HEVC.DTS-X.7.1-FGT 74.68GB-1.jpg
◎译  名 决战犹马镇/决战尤马镇/决战3:10
◎片  名 3:10 to Yuma
◎年  代 2007
◎产  地 美国
◎类  别 行动/犯罪/剧情/西部
◎语  言 英语
◎上映日期 2007-09-07(美国)
◎IMDb评分  7.7/10 from 254,652 users
◎IMDb链接  http://www.imdb.com/title/tt0381849/
◎豆瓣评分 7.9/10 from 23,974 users
◎豆瓣链接 https://movie.douban.com/subject/1793904/
◎片  长 122 分钟
◎导  演 詹姆斯·曼高德 James Mangold
◎主  演 罗素·克劳 Russell Crowe
      克里斯蒂安·贝尔 Christian Bale
      罗根·勒曼 Logan Lerman
      达拉斯·罗伯特斯 Dallas Roberts
      本·福斯特 Ben Foster
      彼得·方达 Peter Fonda
      凡妮莎·肖 Vinessa Shaw
      艾伦·图代克 Alan Tudyk
      卢斯·雷恩斯 Luce Rains
      格瑞辰·摩尔 Gretchen Mol
      约翰尼·威特沃斯 Johnny Whitworth

◎简  介

  丹?埃文斯(克里斯汀·贝尔 饰)在南北战争断了一条腿,获得政府小小的抵偿,他和妻子艾丽丝还有两个儿子在亚利桑那的农场居住。但是,卑劣的天气和败北之风却让丹欠债累累,一些人想在建造铁路上获得暴利,他们想尽法子赶走埃文斯一家,家人起头质疑丹的才能。
  就在此时,西部申明散乱罪犯 宾?维德(罗素·克劳 饰)被捕捉。他曾率领着副手查理?普林斯(本·福斯特 饰)和一帮手下驰骋荒原,劫得大量财物并犯下无数命案。被拘系的宾?维德将由押送队带到康坦森镇,搭上火车他会被送到亚利桑那州的犹马镇,在那边接管联邦法庭的公然审判。
  为了拯救农场和家人,丹自愿加入了押送队,但即使被约束,宾·维德仍然是危险的。在旅程中,押送队不竭折损。当火车到来之时,一切会发生什么改变?

◎获奖情况

  第80届奥斯卡金像奖  (2008)
  最好混音(提名) David Giammarco / Jim Stuebe / 保罗·马瑟
  最好原创配乐(提名) 马可·贝尔崔米


  1. Video
  2. ID                                       : 1
  3. Format                                   : HEVC
  4. Format/Info                              : High Efficiency Video Coding
  5. Format profile                           : Main [url=mailto:10@L5.1]10@L5.1[/url]@High
  6. Codec ID                                 : V_MPEGH/ISO/HEVC
  7. Duration                                 : 2 h 2 min
  8. Bit rate                                 : 79.7 Mb/s
  9. Width                                    : 3 840 pixels
  10. Height                                   : 2 160 pixels
  11. Display aspect ratio                     : 16:9
  12. Frame rate mode                          : Constant
  13. Frame rate                               : 23.976 (24000/1001) FPS
  14. Color space                              : YUV
  15. Chroma subsampling                       : 4:2:0 (Type 2)
  16. Bit depth                                : 10 bits
  17. Bits/(Pixel*Frame)                       : 0.401
  18. Stream size                              : 68.1GB (91%)
  19. Title                                    : 3.10.to.Yuma.2007.2160p.BluRay.REMUX.HEVC.DTS-X.7.1-FGT
  20. Writing library                          : ATEME Titan File 3.7.9 (4.7.9.0)
  21. Default                                  : Yes
  22. Forced                                   : No
  23. Color range                              : Limited
  24. Color primaries                          : BT.2020
  25. Transfer characteristics                 : PQ
  26. Matrix coefficients                      : BT.2020 non-constant
  27. Mastering display color primaries        : R: x=0.680000 y=0.320000, G: x=0.265000 y=0.690000, B: x=0.150000 y=0.060000, White point: x=0.312700 y=0.329000
  28. Mastering display luminance              : min: 0.0000 cd/m2, max: 1000.0000 cd/m2
  29. Maximum Content Light Level              : 1000 cd/m2
  30. Maximum Frame-Average Light Level        : 720 cd/m2

  31. Audio #1
  32. ID                                       : 2
  33. Format                                   : DTS
  34. Format/Info                              : Digital Theater Systems
  35. Format profile                           : X / MA / Core
  36. Codec ID                                 : A_DTS
  37. Duration                                 : 2 h 2 min
  38. Bit rate mode                            : Variable / Variable / Constant
  39. Bit rate                                 : 6 290 kb/s / 6 290 kb/s / 1 509 kb/s
  40. Channel(s)                               : Object Based / 8 channels / 6 channels
  41. Channel positions                        : Object Based / Front: L C R, Side: L R, Back: L R, LFE / Front: L C R, Side: L R, LFE
  42. Sampling rate                            :  / 48.0 kHz / 48.0 kHz
  43. Frame rate                               : 93.750 FPS (512 SPF)
  44. Bit depth                                :  / 24 bits / 24 bits
  45. Compression mode                         :  / Lossless / Lossy
  46. Stream size                              : 5.38GB (7%)
  47. Title                                    : 3.10.to.Yuma.2007.2160p.BluRay.REMUX.HEVC.DTS-X.7.1-FGT
  48. Language                                 : English
  49. Default                                  : Yes
  50. Forced                                   : No

  51. Audio #2
  52. ID                                       : 3
  53. Format                                   : AC-3
  54. Format/Info                              : Audio Coding 3
  55. Codec ID                                 : A_AC3
  56. Duration                                 : 2 h 2 min
  57. Bit rate mode                            : Constant
  58. Bit rate                                 : 224 kb/s
  59. Channel(s)                               : 2 channels
  60. Channel positions                        : Front: L R
  61. Sampling rate                            : 48.0 kHz
  62. Frame rate                               : 31.250 FPS (1536 SPF)
  63. Bit depth                                : 16 bits
  64. Compression mode                         : Lossy
  65. Stream size                              : 196 MiB (0%)
  66. Title                                    : 3.10.to.Yuma.2007.2160p.BluRay.REMUX.HEVC.DTS-X.7.1-FGT
  67. Language                                 : English
  68. Service kind                             : Complete Main
  69. Default                                  : No
  70. Forced                                   : No

  71. Audio #3
  72. ID                                       : 4
  73. Format                                   : AC-3
  74. Format/Info                              : Audio Coding 3
  75. Codec ID                                 : A_AC3
  76. Duration                                 : 2 h 2 min
  77. Bit rate mode                            : Constant
  78. Bit rate                                 : 640 kb/s
  79. Channel(s)                               : 6 channels
  80. Channel positions                        : Front: L C R, Side: L R, LFE
  81. Sampling rate                            : 48.0 kHz
  82. Frame rate                               : 31.250 FPS (1536 SPF)
  83. Bit depth                                : 16 bits
  84. Compression mode                         : Lossy
  85. Stream size                              : 560 MiB (1%)
  86. Title                                    : 3.10.to.Yuma.2007.2160p.BluRay.REMUX.HEVC.DTS-X.7.1-FGT
  87. Language                                 : Spanish
  88. Service kind                             : Complete Main
  89. Default                                  : No
  90. Forced                                   : No

  91. Audio #4
  92. ID                                       : 5
  93. Format                                   : AC-3
  94. Format/Info                              : Audio Coding 3
  95. Codec ID                                 : A_AC3
  96. Duration                                 : 2 h 2 min
  97. Bit rate mode                            : Constant
  98. Bit rate                                 : 224 kb/s
  99. Channel(s)                               : 2 channels
  100. Channel positions                        : Front: L R
  101. Sampling rate                            : 48.0 kHz
  102. Frame rate                               : 31.250 FPS (1536 SPF)
  103. Bit depth                                : 16 bits
  104. Compression mode                         : Lossy
  105. Stream size                              : 196 MiB (0%)
  106. Title                                    : 3.10.to.Yuma.2007.2160p.BluRay.REMUX.HEVC.DTS-X.7.1-FGT
  107. Language                                 : French
  108. Service kind                             : Complete Main
  109. Default                                  : No
  110. Forced                                   : No

  111. Audio #5
  112. ID                                       : 6
  113. Format                                   : AC-3
  114. Format/Info                              : Audio Coding 3
  115. Codec ID                                 : A_AC3
  116. Duration                                 : 2 h 2 min
  117. Bit rate mode                            : Constant
  118. Bit rate                                 : 224 kb/s
  119. Channel(s)                               : 2 channels
  120. Channel positions                        : Front: L R
  121. Sampling rate                            : 48.0 kHz
  122. Frame rate                               : 31.250 FPS (1536 SPF)
  123. Bit depth                                : 16 bits
  124. Compression mode                         : Lossy
  125. Stream size                              : 196 MiB (0%)
  126. Title                                    : 3.10.to.Yuma.2007.2160p.BluRay.REMUX.HEVC.DTS-X.7.1-FGT
  127. Language                                 : English
  128. Service kind                             : Complete Main
  129. Default                                  : No
  130. Forced                                   : No

  131. Text #1
  132. ID                                       : 7
  133. Format                                   : PGS
  134. Muxing mode                              : zlib
  135. Codec ID                                 : S_HDMV/PGS
  136. Codec ID/Info                            : Picture based subtitle format used on BDs/HD-DVDs
  137. Duration                                 : 2 h 0 min
  138. Bit rate                                 : 39.1 kb/s
  139. Count of elements                        : 2480
  140. Stream size                              : 33.8 MiB (0%)
  141. Title                                    : English-PGS
  142. Language                                 : English
  143. Default                                  : Yes
  144. Forced                                   : No

  145. Text #2
  146. ID                                       : 8
  147. Format                                   : PGS
  148. Muxing mode                              : zlib
  149. Codec ID                                 : S_HDMV/PGS
  150. Codec ID/Info                            : Picture based subtitle format used on BDs/HD-DVDs
  151. Duration                                 : 1 h 55 min
  152. Bit rate                                 : 24.4 kb/s
  153. Count of elements                        : 2398
  154. Stream size                              : 20.2 MiB (0%)
  155. Title                                    : English-SDH-PGS
  156. Language                                 : English
  157. Default                                  : No
  158. Forced                                   : No

  159. Text #3
  160. ID                                       : 9
  161. Format                                   : PGS
  162. Muxing mode                              : zlib
  163. Codec ID                                 : S_HDMV/PGS
  164. Codec ID/Info                            : Picture based subtitle format used on BDs/HD-DVDs
  165. Duration                                 : 1 h 56 min
  166. Bit rate                                 : 36.3 kb/s
  167. Count of elements                        : 2494
  168. Stream size                              : 30.2 MiB (0%)
  169. Title                                    : Spanish-PGS
  170. Language                                 : Spanish
  171. Default                                  : No
  172. Forced                                   : No

  173. Menu
  174. 00:00:00.000                             : en:Chapter 1
  175. 00:05:32.457                             : en:Chapter 2
  176. 00:14:10.391                             : en:Chapter 3
  177. 00:19:02.891                             : en:Chapter 4
  178. 00:27:05.165                             : en:Chapter 5
  179. 00:37:58.526                             : en:Chapter 6
  180. 00:41:17.892                             : en:Chapter 7
  181. 00:51:56.988                             : en:Chapter 8
  182. 00:57:34.200                             : en:Chapter 9
  183. 01:05:45.983                             : en:Chapter 10
  184. 01:11:42.339                             : en:Chapter 11
  185. 01:18:30.580                             : en:Chapter 12
  186. 01:26:38.860                             : en:Chapter 13
  187. 01:35:09.286                             : en:Chapter 14
  188. 01:43:04.678                             : en:Chapter 15
  189. 01:50:30.498                             : en:Chapter 16



复制代码
复制代码
决战犹马镇/决战尤马镇 3.10.to.Yuma.2007.2160p.BluRay.REMUX.HEVC.DTS-X.7.1-FGT 74.68GB-2.png 决战犹马镇/决战尤马镇 3.10.to.Yuma.2007.2160p.BluRay.REMUX.HEVC.DTS-X.7.1-FGT 74.68GB-3.png 决战犹马镇/决战尤马镇 3.10.to.Yuma.2007.2160p.BluRay.REMUX.HEVC.DTS-X.7.1-FGT 74.68GB-4.png 决战犹马镇/决战尤马镇 3.10.to.Yuma.2007.2160p.BluRay.REMUX.HEVC.DTS-X.7.1-FGT 74.68GB-5.png 决战犹马镇/决战尤马镇 3.10.to.Yuma.2007.2160p.BluRay.REMUX.HEVC.DTS-X.7.1-FGT 74.68GB-6.png 决战犹马镇/决战尤马镇 3.10.to.Yuma.2007.2160p.BluRay.REMUX.HEVC.DTS-X.7.1-FGT 74.68GB-7.png





回复

使用道具 举报

懒得打字嘛,点击右侧快捷回复 【右侧内容,后台自定义】
您需要登录后才可以回帖 登录 | 立即加入

本版积分规则

Archiver| |网站地图

Copyright © 2024 Comsenz Inc. Powered by 蓝光电影网

本站内容由用户自主分享和转载自互联网,转载目的在于传递更多信息,并不代表本网赞同其观点和对其真实性负责。

如有侵权、违反国家法律政策行为,请联系我们,我们会第一时间及时清除和处理!

举报反馈邮箱:4k1080.com@gmail.com

快速回复 返回顶部 返回列表