找回密码

查看: 2960|回复: 4

林中小屋/尸营旅舍 The.Cabin.in.the.Woods.2012.2160p.BluRay.x265.10bit.SDR.DTS-HD.MA.TrueHD.7.1.Atmos-SWTYBLZ 28.95GB

[复制链接]
蓝光币
2048
发表于 2017-12-22 16:44:43 | 显示全部楼层 |阅读模式
林中小屋/尸营客店 The.Cabin.in.the.Woods.2012.2160p.BluRay.x265.10bit.SDR.DTS-HD.MA.TrueHD.7.1.Atmos-SWTYBLZ 28.95GB-1.jpg
◎译  名 林中小屋/尸营客店/诡屋/林中屋
◎片  名 The Cabin in the Woods
◎年  代 2012
◎产  地 美国
◎类  别 笑剧/悬疑/可骇
◎语  言 英语/日语
◎上映日期 2012-03-09(西南偏南电影节)/2012-04-13(美国)
◎IMDb评分  7.0/10 from 308,712 users
◎IMDb链接  http://www.imdb.com/title/tt1259521/
◎豆瓣评分 7.4/10 from 117,158 users
◎豆瓣链接 https://movie.douban.com/subject/3143676/
◎片  长 95分钟
◎导  演 德鲁·高达 Drew Goddard
◎主  演 克里斯汀 康奈利 Kristen Connolly
      理查·詹金斯 Richard Jenkins
      弗兰·克朗茨 Fran Kranz
      布莱德利·惠特福德 Bradley Whitford
      杰西·威廉姆斯 Jesse Williams
      克里斯·海姆斯沃斯 Chris Hemsworth
      安娜·哈彻森 Anna Hutchison
      西格妮·韦弗 Sigourney Weaver
      艾米·阿克 Amy Acker
      布莱恩·J·怀特 Brian J. White

◎简  介

  在一个明媚的日子里,同在一所大学的荷登(杰西·威廉姆斯 Jesse Williams 饰)、马提(弗兰·克朗茨 Fran Kranz 饰)、茱尔丝(安娜·哈彻森 Anna Hutchison 饰)、戴娜(克里斯汀·康奈利 Kristen Connolly 饰)以及科特(克里斯·海姆斯沃斯 Chris Hemsworth 饰)等5人驱车前往位于深山老林的小木屋中度假。他们不晓得的是,自己的一举一动都在一个奥秘机构的监视之下,甚至会自觉不自觉依照那群人的指导进入圈套。“无意”当中,戴娜用拉丁文念出一段咒语,在此以后,长逝土壤之下的丧尸爬了出来,对年轻人们展开血腥大屠杀。而镜头的另一边,奥秘机构的成员喜滋滋看着镜头前的一切。
  蒙昧的年轻人们,为了一个奥秘的目标必须死去……

◎获奖情况

  第18届美国批评家挑选电影奖  (2013)
  最好科幻/可骇片(提名)

  第17届圣地亚哥影评人协会奖  (2012)
  最好原创剧本(提名) 乔斯·韦登

  第25届芝加哥影评人协会奖  (2012)
  最具潜力导演(提名) 德鲁·高达

  第46届堪萨斯影评人协会奖  (2012)
  最好科幻/可骇片

  第12届凤凰城影评人协会奖  (2012)
  年度被疏忽影片(提名)

  第3届豆瓣电影鑫像奖  (2013)
  鑫豆单元 最好落选影片(提名)



  1. Video
  2. ID                                       : 1
  3. Format                                   : HEVC
  4. Format/Info                              : High Efficiency Video Coding
  5. Format profile                           : Main [url=mailto:10@L5.1]10@L5.1[/url]@High
  6. Codec ID                                 : V_MPEGH/ISO/HEVC
  7. Duration                                 : 1 h 35 min
  8. Bit rate                                 : 33.9 Mb/s
  9. Width                                    : 3 840 pixels
  10. Height                                   : 1 600 pixels
  11. Display aspect ratio                     : 2.40:1
  12. Frame rate mode                          : Constant
  13. Frame rate                               : 23.976 (24000/1001) FPS
  14. Color space                              : YUV
  15. Chroma subsampling                       : 4:2:0
  16. Bit depth                                : 10 bits
  17. Bits/(Pixel*Frame)                       : 0.230
  18. Stream size                              : 22.5GB (78%)
  19. Title                                    : The.Cabin.in.the.Woods.2012.2160p.BluRay.x265.10bit.SDR.DTS-HD.MA.TrueHD.7.1.Atmos-SWTYBLZ
  20. Writing library                          : x265 2.5+4-b4a5bcfe29c7:[Windows][GCC 4.9.3][64 bit] 10bit
  21. Encoding settings                        : cpuid=1173503 / frame-threads=16 / numa-pools=24,24,24,24 / wpp / no-pmode / no-pme / no-psnr / no-ssim / log-level=2 / input-csp=1 / input-res=3840x1600 / interlace=0 / total-frames=0 / level-idc=51 / high-tier=1 / uhd-bd=0 / ref=3 / no-allow-non-conformance / repeat-headers / annexb / aud / hrd / info / hash=0 / no-temporal-layers / no-open-gop / min-keyint=1 / keyint=24 / bframes=4 / b-adapt=2 / b-pyramid / bframe-bias=0 / rc-lookahead=25 / lookahead-slices=4 / scenecut=40 / no-intra-refresh / ctu=64 / min-cu-size=8 / no-rect / no-amp / max-tu-size=32 / tu-inter-depth=1 / tu-intra-depth=1 / limit-tu=0 / rdoq-level=0 / dynamic-rd=0.00 / no-ssim-rd / signhide / no-tskip / nr-intra=0 / nr-inter=0 / no-constrained-intra / strong-intra-smoothing / max-merge=2 / limit-refs=3 / no-limit-modes / me=1 / subme=2 / merange=57 / temporal-mvp / weightp / no-weightb / no-analyze-src-pics / deblock=0:0 / no-sao / no-sao-non-deblock / rd=3 / no-early-skip / rskip / no-fast-intra / no-tskip-fast / no-cu-lossless / no-b-intra / rdpenalty=0 / psy-rd=2.00 / psy-rdoq=0.00 / no-rd-refine / analysis-reuse-mode=0 / no-lossless / cbqpoffs=0 / crqpoffs=0 / rc=crf / crf=16.0 / qcomp=0.60 / qpstep=4 / stats-write=0 / stats-read=0 / vbv-maxrate=160000 / vbv-bufsize=160000 / vbv-init=0.9 / crf-max=0.0 / crf-min=0.0 / ipratio=1.40 / pbratio=1.30 / aq-mode=1 / aq-strength=1.00 / cutree / zone-count=0 / no-strict-cbr / qg-size=32 / no-rc-grain / qpmax=69 / qpmin=0 / no-const-vbv / sar=1 / overscan=0 / videoformat=5 / range=0 / colorprim=2 / transfer=2 / colormatrix=2 / chromaloc=0 / display-window=0 / max-cll=0,0 / min-luma=0 / max-luma=1023 / log2-max-poc-lsb=8 / vui-timing-info / vui-hrd-info / slices=1 / opt-qp-pps / opt-ref-list-length-pps / no-multi-pass-opt-rps / scenecut-bias=0.05 / no-opt-cu-delta-qp / no-aq-motion / no-hdr / no-hdr-opt / no-dhdr10-opt / analysis-reuse-level=5 / scale-factor=0 / refine-intra=0 / refine-inter=0 / refine-mv=0 / no-limit-sao / ctu-info=0
  22. Default                                  : Yes
  23. Forced                                   : No

  24. Audio #1
  25. ID                                       : 2
  26. Format                                   : TrueHD
  27. Format profile                           : TrueHD+Atmos / TrueHD
  28. Codec ID                                 : A_TRUEHD
  29. Duration                                 : 1 h 35 min
  30. Bit rate mode                            : Variable
  31. Bit rate                                 : 4 432 kb/s
  32. Maximum bit rate                         : 8 064 kb/s
  33. Channel(s)                               : Object Based / 8 channels
  34. Channel positions                        : Object Based / Front: L C R, Side: L R, Back: L R, LFE
  35. Sampling rate                            :  / 48.0 kHz
  36. Frame rate                               : 1 200.000 FPS (40 SPF)
  37. Compression mode                         : Lossless
  38. Delay relative to video                  : 1 ms
  39. Stream size                              : 2.94GB (10%)
  40. Title                                    : The.Cabin.in.the.Woods.2012.2160p.BluRay.x265.10bit.SDR.DTS-HD.MA.TrueHD.7.1.Atmos-SWTYBLZ
  41. Language                                 : English
  42. Default                                  : Yes
  43. Forced                                   : No

  44. Audio #2
  45. ID                                       : 3
  46. Format                                   : DTS
  47. Format/Info                              : Digital Theater Systems
  48. Format profile                           : MA / Core
  49. Codec ID                                 : A_DTS
  50. Duration                                 : 1 h 35 min
  51. Bit rate mode                            : Variable / Constant
  52. Bit rate                                 : 4 160 kb/s / 1 509 kb/s
  53. Channel(s)                               : 8 channels / 6 channels
  54. Channel positions                        : Front: L C R, Side: L R, Back: L R, LFE / Front: L C R, Side: L R, LFE
  55. Sampling rate                            : 48.0 kHz
  56. Frame rate                               : 93.750 FPS (512 SPF)
  57. Bit depth                                : 24 bits
  58. Compression mode                         : Lossless / Lossy
  59. Stream size                              : 2.76GB (10%)
  60. Title                                    : The.Cabin.in.the.Woods.2012.2160p.BluRay.x265.10bit.SDR.DTS-HD.MA.TrueHD.7.1.Atmos-SWTYBLZ
  61. Language                                 : English
  62. Default                                  : No
  63. Forced                                   : No

  64. Audio #3
  65. ID                                       : 4
  66. Format                                   : AC-3
  67. Format/Info                              : Audio Coding 3
  68. Codec ID                                 : A_AC3
  69. Duration                                 : 1 h 35 min
  70. Bit rate mode                            : Constant
  71. Bit rate                                 : 640 kb/s
  72. Channel(s)                               : 6 channels
  73. Channel positions                        : Front: L C R, Side: L R, LFE
  74. Sampling rate                            : 48.0 kHz
  75. Frame rate                               : 31.250 FPS (1536 SPF)
  76. Bit depth                                : 16 bits
  77. Compression mode                         : Lossy
  78. Delay relative to video                  : 1 ms
  79. Stream size                              : 435 MiB (1%)
  80. Title                                    : The.Cabin.in.the.Woods.2012.2160p.BluRay.x265.10bit.SDR.DTS-HD.MA.TrueHD.7.1.Atmos-SWTYBLZ
  81. Language                                 : English
  82. Service kind                             : Complete Main
  83. Default                                  : No
  84. Forced                                   : No

  85. Text #1
  86. ID                                       : 5
  87. Format                                   : UTF-8
  88. Codec ID                                 : S_TEXT/UTF8
  89. Codec ID/Info                            : UTF-8 Plain Text
  90. Duration                                 : 1 h 28 min
  91. Bit rate                                 : 45 b/s
  92. Count of elements                        : 983
  93. Stream size                              : 29.2 KiB (0%)
  94. Title                                    : English-SRT
  95. Language                                 : English
  96. Default                                  : Yes
  97. Forced                                   : No

  98. Text #2
  99. ID                                       : 6
  100. Format                                   : PGS
  101. Muxing mode                              : zlib
  102. Codec ID                                 : S_HDMV/PGS
  103. Codec ID/Info                            : Picture based subtitle format used on BDs/HD-DVDs
  104. Duration                                 : 1 h 28 min
  105. Bit rate                                 : 30.1 kb/s
  106. Count of elements                        : 1968
  107. Stream size                              : 19.1 MiB (0%)
  108. Title                                    : English-PGS
  109. Language                                 : English
  110. Default                                  : No
  111. Forced                                   : No

  112. Text #3
  113. ID                                       : 7
  114. Format                                   : PGS
  115. Muxing mode                              : zlib
  116. Codec ID                                 : S_HDMV/PGS
  117. Codec ID/Info                            : Picture based subtitle format used on BDs/HD-DVDs
  118. Duration                                 : 1 h 28 min
  119. Bit rate                                 : 33.4 kb/s
  120. Count of elements                        : 2216
  121. Stream size                              : 21.1 MiB (0%)
  122. Title                                    : English-SDH-PGS
  123. Language                                 : English
  124. Default                                  : No
  125. Forced                                   : No

  126. Text #4
  127. ID                                       : 8
  128. Format                                   : PGS
  129. Muxing mode                              : zlib
  130. Codec ID                                 : S_HDMV/PGS
  131. Codec ID/Info                            : Picture based subtitle format used on BDs/HD-DVDs
  132. Duration                                 : 1 h 28 min
  133. Bit rate                                 : 29.2 kb/s
  134. Count of elements                        : 1984
  135. Stream size                              : 18.4 MiB (0%)
  136. Title                                    : Spanish-PGS
  137. Language                                 : Spanish
  138. Default                                  : No
  139. Forced                                   : No

  140. Text #5
  141. ID                                       : 9
  142. Format                                   : PGS
  143. Muxing mode                              : zlib
  144. Codec ID                                 : S_HDMV/PGS
  145. Codec ID/Info                            : Picture based subtitle format used on BDs/HD-DVDs
  146. Duration                                 : 1 h 27 min
  147. Bit rate                                 : 178 b/s
  148. Count of elements                        : 14
  149. Stream size                              : 114 KiB (0%)
  150. Title                                    : French-PGS
  151. Language                                 : French
  152. Default                                  : No
  153. Forced                                   : No

  154. Menu
  155. 00:00:00.000                             : en:Chapter 1
  156. 00:05:42.425                             : en:Chapter 2
  157. 00:12:31.709                             : en:Chapter 3
  158. 00:18:40.077                             : en:Chapter 4
  159. 00:24:22.502                             : en:Chapter 5
  160. 00:29:27.140                             : en:Chapter 6
  161. 00:35:02.642                             : en:Chapter 7
  162. 00:41:40.164                             : en:Chapter 8
  163. 00:46:43.759                             : en:Chapter 9
  164. 00:50:57.804                             : en:Chapter 10
  165. 00:54:43.822                             : en:Chapter 11
  166. 01:06:49.130                             : en:Chapter 12
  167. 01:12:50.115                             : en:Chapter 13
  168. 01:16:45.976                             : en:Chapter 14
  169. 01:21:34.014                             : en:Chapter 15
  170. 01:26:59.505                             : en:Chapter 16

复制代码
复制代码
林中小屋/尸营客店 The.Cabin.in.the.Woods.2012.2160p.BluRay.x265.10bit.SDR.DTS-HD.MA.TrueHD.7.1.Atmos-SWTYBLZ 28.95GB-2.png 林中小屋/尸营客店 The.Cabin.in.the.Woods.2012.2160p.BluRay.x265.10bit.SDR.DTS-HD.MA.TrueHD.7.1.Atmos-SWTYBLZ 28.95GB-3.png 林中小屋/尸营客店 The.Cabin.in.the.Woods.2012.2160p.BluRay.x265.10bit.SDR.DTS-HD.MA.TrueHD.7.1.Atmos-SWTYBLZ 28.95GB-4.png 林中小屋/尸营客店 The.Cabin.in.the.Woods.2012.2160p.BluRay.x265.10bit.SDR.DTS-HD.MA.TrueHD.7.1.Atmos-SWTYBLZ 28.95GB-5.png 林中小屋/尸营客店 The.Cabin.in.the.Woods.2012.2160p.BluRay.x265.10bit.SDR.DTS-HD.MA.TrueHD.7.1.Atmos-SWTYBLZ 28.95GB-6.png 林中小屋/尸营客店 The.Cabin.in.the.Woods.2012.2160p.BluRay.x265.10bit.SDR.DTS-HD.MA.TrueHD.7.1.Atmos-SWTYBLZ 28.95GB-7.png 林中小屋/尸营客店 The.Cabin.in.the.Woods.2012.2160p.BluRay.x265.10bit.SDR.DTS-HD.MA.TrueHD.7.1.Atmos-SWTYBLZ 28.95GB-8.png





回复

使用道具 举报

懒得打字嘛,点击右侧快捷回复 【右侧内容,后台自定义】
您需要登录后才可以回帖 登录 | 立即加入

本版积分规则

Archiver| |网站地图

Copyright © 2024 Comsenz Inc. Powered by 蓝光电影网

本站内容由用户自主分享和转载自互联网,转载目的在于传递更多信息,并不代表本网赞同其观点和对其真实性负责。

如有侵权、违反国家法律政策行为,请联系我们,我们会第一时间及时清除和处理!

举报反馈邮箱:4k1080.com@gmail.com

快速回复 返回顶部 返回列表