找回密码

查看: 4860|回复: 1

黑夜传说/妖夜寻狼 Underworld.2003.THEATRICAL.2160p.BluRay.x265.10bit.HDR.TrueHD.7.1.Atmos-TERMiNAL 29.22GB

[复制链接]
蓝光币
1992
发表于 2017-12-22 16:46:40 | 显示全部楼层 |阅读模式
黑夜传闻/妖夜寻狼 Underworld.2003.THEATRICAL.2160p.BluRay.x265.10bit.HDR.TrueHD.7.1.Atmos-TERMiNAL 29.22GB-1.jpg
◎译  名 黑夜传闻/妖夜寻狼/决战异天下
◎片  名 Underworld
◎年  代 2003
◎产  地 英国/德国/匈牙利/美国
◎类  别 行动/奇异/惊悚
◎语  言 英语
◎上映日期 2003-09-08(多伦多电影节)/2003-09-19(美国)
◎IMDb评分  7.0/10 from 227,330 users
◎IMDb链接  http://www.imdb.com/title/tt0320691/
◎豆瓣评分 7.4/10 from 65,312 users
◎豆瓣链接 https://movie.douban.com/subject/1307527/
◎片  长 121分钟/133分钟(导演剪辑版)
◎导  演 伦·怀斯曼 Len Wiseman
◎主  演 凯特·贝金赛尔 Kate Beckinsale
      斯科特·斯比德曼 Scott Speedman
      山恩·布罗利 Shane Brolly
      麦克·辛 Michael Sheen
      比尔·奈伊 Bill Nighy
      索非亚·迈尔斯 Sophia Myles
      文特沃斯·米勒 Wentworth Miller

◎简  介

  地球上一向存在着一个黑暗的地来天下。那边,两大种族――吸血鬼和狼人――在斗得不共戴天,每一方都以消灭对方种族为终极方针。
  一次,吸血鬼族的“月神”西丽妮(凯特?贝金赛尔 Kate Beckinsale 饰)在追杀几个落败的狼人时发现,狼人正在谋害绑架人类的一位医生麦克尔(斯科特?斯比德曼 Scott Speedman 饰)。心知狼人必有所图,西丽妮单独前往狼窝查探。不意中了狼人的匿伏,身负重伤之际幸得麦克尔相救。在麦克尔送西丽妮回吸血鬼营地的途中,他意外被一只吸血鬼咬伤了,由此揭开了麦克尔的身世之谜和狼人的诡计……


  1. Video
  2. ID                                       : 1
  3. Format                                   : HEVC
  4. Format/Info                              : High Efficiency Video Coding
  5. Format profile                           : Main [url=mailto:10@L5.1]10@L5.1[/url]@High
  6. Codec ID                                 : V_MPEGH/ISO/HEVC
  7. Duration                                 : 2 h 1 min
  8. Bit rate                                 : 28.2 Mb/s
  9. Width                                    : 3 828 pixels
  10. Height                                   : 1 606 pixels
  11. Display aspect ratio                     : 2.40:1
  12. Frame rate mode                          : Constant
  13. Frame rate                               : 23.976 (24000/1001) FPS
  14. Color space                              : YUV
  15. Chroma subsampling                       : 4:2:0 (Type 2)
  16. Bit depth                                : 10 bits
  17. Bits/(Pixel*Frame)                       : 0.191
  18. Stream size                              : 23.8GB (83%)
  19. Writing library                          : x265 2.5+58-06979c042350:[Windows][GCC 6.2.1][64 bit] 10bit
  20. Encoding settings                        : cpuid=1173503 / frame-threads=4 / numa-pools=16 / wpp / no-pmode / no-pme / no-psnr / no-ssim / log-level=2 / input-csp=1 / input-res=3828x1606 / interlace=0 / total-frames=174360 / level-idc=51 / high-tier=1 / uhd-bd=0 / ref=4 / no-allow-non-conformance / repeat-headers / annexb / aud / hrd / info / hash=0 / no-temporal-layers / no-open-gop / min-keyint=1 / keyint=24 / bframes=4 / b-adapt=2 / b-pyramid / bframe-bias=0 / rc-lookahead=25 / lookahead-slices=4 / scenecut=40 / no-intra-refresh / ctu=64 / min-cu-size=8 / rect / no-amp / max-tu-size=32 / tu-inter-depth=1 / tu-intra-depth=1 / limit-tu=0 / rdoq-level=2 / dynamic-rd=0.00 / no-ssim-rd / signhide / no-tskip / nr-intra=0 / nr-inter=0 / no-constrained-intra / no-strong-intra-smoothing / max-merge=3 / limit-refs=3 / limit-modes / me=3 / subme=3 / merange=57 / temporal-mvp / weightp / no-weightb / no-analyze-src-pics / deblock=-3:-3 / no-sao / no-sao-non-deblock / rd=4 / no-early-skip / rskip / no-fast-intra / no-tskip-fast / no-cu-lossless / no-b-intra / no-splitrd-skip / rdpenalty=0 / psy-rd=2.00 / psy-rdoq=1.00 / no-rd-refine / analysis-reuse-mode=0 / no-lossless / cbqpoffs=0 / crqpoffs=0 / rc=crf / crf=17.0 / qcomp=0.60 / qpstep=4 / stats-write=0 / stats-read=0 / vbv-maxrate=160000 / vbv-bufsize=160000 / vbv-init=0.9 / crf-max=0.0 / crf-min=0.0 / ipratio=1.40 / pbratio=1.30 / aq-mode=1 / aq-strength=1.00 / cutree / zone-count=0 / no-strict-cbr / qg-size=32 / no-rc-grain / qpmax=69 / qpmin=0 / no-const-vbv / sar=1 / overscan=0 / videoformat=5 / range=0 / colorprim=9 / transfer=16 / colormatrix=9 / chromaloc=1 / chromaloc-top=2 / chromaloc-bottom=2 / display-window=0 / master-display=G(13250,34500)B(7500,3000)R(34000,16000)WP(15635,16450)L(40000000,50) / max-cll=810,498 / min-luma=0 / max-luma=1023 / log2-max-poc-lsb=8 / vui-timing-info / vui-hrd-info / slices=1 / no-opt-qp-pps / no-opt-ref-list-length-pps / no-multi-pass-opt-rps / scenecut-bias=0.05 / no-opt-cu-delta-qp / no-aq-motion / hdr / hdr-opt / no-dhdr10-opt / analysis-reuse-level=5 / scale-factor=0 / refine-intra=0 / refine-inter=0 / refine-mv=0 / no-limit-sao / ctu-info=0 / no-lowpass-dct / refine-mv-type=0 / copy-pic=1
  21. Default                                  : Yes
  22. Forced                                   : No
  23. Color range                              : Limited
  24. Color primaries                          : BT.2020
  25. Transfer characteristics                 : PQ
  26. Matrix coefficients                      : BT.2020 non-constant
  27. Mastering display color primaries        : R: x=0.680000 y=0.320000, G: x=0.265000 y=0.690000, B: x=0.150000 y=0.060000, White point: x=0.312700 y=0.329000
  28. Mastering display luminance              : min: 0.0050 cd/m2, max: 4000.0000 cd/m2
  29. Maximum Content Light Level              : 810 cd/m2
  30. Maximum Frame-Average Light Level        : 498 cd/m2

  31. Audio #1
  32. ID                                       : 2
  33. Format                                   : TrueHD
  34. Format profile                           : TrueHD+Atmos / TrueHD
  35. Codec ID                                 : A_TRUEHD
  36. Duration                                 : 2 h 1 min
  37. Bit rate mode                            : Variable
  38. Bit rate                                 : 5 186 kb/s
  39. Maximum bit rate                         : 8 805 kb/s
  40. Channel(s)                               : Object Based / 8 channels
  41. Channel positions                        : Object Based / Front: L C R, Side: L R, Back: L R, LFE
  42. Sampling rate                            :  / 48.0 kHz
  43. Frame rate                               : 1 200.000 FPS (40 SPF)
  44. Compression mode                         : Lossless
  45. Stream size                              : 4.39GB (15%)
  46. Language                                 : English
  47. Default                                  : Yes
  48. Forced                                   : No

  49. Audio #2
  50. ID                                       : 3
  51. Format                                   : AC-3
  52. Format/Info                              : Audio Coding 3
  53. Codec ID                                 : A_AC3
  54. Duration                                 : 2 h 1 min
  55. Bit rate mode                            : Constant
  56. Bit rate                                 : 640 kb/s
  57. Channel(s)                               : 6 channels
  58. Channel positions                        : Front: L C R, Side: L R, LFE
  59. Sampling rate                            : 48.0 kHz
  60. Frame rate                               : 31.250 FPS (1536 SPF)
  61. Bit depth                                : 16 bits
  62. Compression mode                         : Lossy
  63. Stream size                              : 555 MiB (2%)
  64. Language                                 : English
  65. Service kind                             : Complete Main
  66. Default                                  : No
  67. Forced                                   : No

  68. Text #1
  69. ID                                       : 4
  70. Format                                   : PGS
  71. Muxing mode                              : zlib
  72. Codec ID                                 : S_HDMV/PGS
  73. Codec ID/Info                            : Picture based subtitle format used on BDs/HD-DVDs
  74. Duration                                 : 1 h 52 min
  75. Bit rate                                 : 16.2 kb/s
  76. Count of elements                        : 1325
  77. Stream size                              : 13.0 MiB (0%)
  78. Title                                    : American English
  79. Language                                 : English
  80. Default                                  : No
  81. Forced                                   : No

  82. Text #2
  83. ID                                       : 5
  84. Format                                   : PGS
  85. Muxing mode                              : zlib
  86. Codec ID                                 : S_HDMV/PGS
  87. Codec ID/Info                            : Picture based subtitle format used on BDs/HD-DVDs
  88. Duration                                 : 2 h 0 min
  89. Bit rate                                 : 19.5 kb/s
  90. Count of elements                        : 1954
  91. Stream size                              : 16.7 MiB (0%)
  92. Title                                    : American English SDH
  93. Language                                 : English
  94. Default                                  : No
  95. Forced                                   : No

  96. Text #3
  97. ID                                       : 6
  98. Format                                   : PGS
  99. Muxing mode                              : zlib
  100. Codec ID                                 : S_HDMV/PGS
  101. Codec ID/Info                            : Picture based subtitle format used on BDs/HD-DVDs
  102. Duration                                 : 1 h 52 min
  103. Bit rate                                 : 16.2 kb/s
  104. Count of elements                        : 1326
  105. Stream size                              : 13.0 MiB (0%)
  106. Title                                    : British English
  107. Language                                 : English
  108. Default                                  : No
  109. Forced                                   : No

  110. Text #4
  111. ID                                       : 7
  112. Format                                   : PGS
  113. Muxing mode                              : zlib
  114. Codec ID                                 : S_HDMV/PGS
  115. Codec ID/Info                            : Picture based subtitle format used on BDs/HD-DVDs
  116. Duration                                 : 2 h 0 min
  117. Bit rate                                 : 19.5 kb/s
  118. Count of elements                        : 1955
  119. Stream size                              : 16.7 MiB (0%)
  120. Title                                    : British English SDH
  121. Language                                 : English
  122. Default                                  : No
  123. Forced                                   : No

  124. Text #5
  125. ID                                       : 8
  126. Format                                   : PGS
  127. Muxing mode                              : zlib
  128. Codec ID                                 : S_HDMV/PGS
  129. Codec ID/Info                            : Picture based subtitle format used on BDs/HD-DVDs
  130. Duration                                 : 2 h 0 min
  131. Bit rate                                 : 13.8 kb/s
  132. Count of elements                        : 1318
  133. Stream size                              : 11.9 MiB (0%)
  134. Language                                 : French
  135. Default                                  : No
  136. Forced                                   : No

  137. Text #6
  138. ID                                       : 9
  139. Format                                   : PGS
  140. Muxing mode                              : zlib
  141. Codec ID                                 : S_HDMV/PGS
  142. Codec ID/Info                            : Picture based subtitle format used on BDs/HD-DVDs
  143. Duration                                 : 1 h 52 min
  144. Bit rate                                 : 17.0 kb/s
  145. Count of elements                        : 1339
  146. Stream size                              : 13.7 MiB (0%)
  147. Language                                 : Italian
  148. Default                                  : No
  149. Forced                                   : No

  150. Menu
  151. 00:00:00.000                             : en:00:00:00.000
  152. 00:07:41.419                             : en:00:07:41.419
  153. 00:16:32.283                             : en:00:16:32.283
  154. 00:22:30.140                             : en:00:22:30.140
  155. 00:28:20.616                             : en:00:28:20.616
  156. 00:34:23.603                             : en:00:34:23.603
  157. 00:43:23.810                             : en:00:43:23.810
  158. 00:50:19.016                             : en:00:50:19.016
  159. 00:59:19.264                             : en:00:59:19.264
  160. 01:05:40.311                             : en:01:05:40.311
  161. 01:11:05.136                             : en:01:11:05.136
  162. 01:21:07.362                             : en:01:21:07.362
  163. 01:26:29.851                             : en:01:26:29.851
  164. 01:34:34.919                             : en:01:34:34.919
  165. 01:44:15.499                             : en:01:44:15.499
  166. 01:50:20.781                             : en:01:50:20.781



复制代码
复制代码
黑夜传闻/妖夜寻狼 Underworld.2003.THEATRICAL.2160p.BluRay.x265.10bit.HDR.TrueHD.7.1.Atmos-TERMiNAL 29.22GB-2.png 黑夜传闻/妖夜寻狼 Underworld.2003.THEATRICAL.2160p.BluRay.x265.10bit.HDR.TrueHD.7.1.Atmos-TERMiNAL 29.22GB-3.png 黑夜传闻/妖夜寻狼 Underworld.2003.THEATRICAL.2160p.BluRay.x265.10bit.HDR.TrueHD.7.1.Atmos-TERMiNAL 29.22GB-4.png 黑夜传闻/妖夜寻狼 Underworld.2003.THEATRICAL.2160p.BluRay.x265.10bit.HDR.TrueHD.7.1.Atmos-TERMiNAL 29.22GB-5.png 黑夜传闻/妖夜寻狼 Underworld.2003.THEATRICAL.2160p.BluRay.x265.10bit.HDR.TrueHD.7.1.Atmos-TERMiNAL 29.22GB-6.png 黑夜传闻/妖夜寻狼 Underworld.2003.THEATRICAL.2160p.BluRay.x265.10bit.HDR.TrueHD.7.1.Atmos-TERMiNAL 29.22GB-7.png






回复

使用道具 举报

蓝光币
643
发表于 2018-11-26 13:20:32 | 显示全部楼层
楼主加油,我们都看好你哦。
回复

使用道具 举报

懒得打字嘛,点击右侧快捷回复 【右侧内容,后台自定义】
您需要登录后才可以回帖 登录 | 立即加入

本版积分规则

Archiver| |网站地图

Copyright © 2024 Comsenz Inc. Powered by 蓝光电影网

本站内容由用户自主分享和转载自互联网,转载目的在于传递更多信息,并不代表本网赞同其观点和对其真实性负责。

如有侵权、违反国家法律政策行为,请联系我们,我们会第一时间及时清除和处理!

举报反馈邮箱:4k1080.com@gmail.com

快速回复 返回顶部 返回列表