找回密码

查看: 4093|回复: 7

林中小屋/尸营旅舍 The.Cabin.in.the.Woods.2012.2160p.BluRay.x265.10bit.HDR.TrueHD.7.1.Atmos-TERMiNAL 17.74GB

[复制链接]
蓝光币
2039
发表于 2017-12-22 16:47:45 | 显示全部楼层 |阅读模式
林中小屋/尸营客店 The.Cabin.in.the.Woods.2012.2160p.BluRay.x265.10bit.HDR.TrueHD.7.1.Atmos-TERMiNAL 17.74GB-1.jpg
◎译  名 林中小屋/尸营客店/诡屋/林中屋
◎片  名 The Cabin in the Woods
◎年  代 2012
◎产  地 美国
◎类  别 笑剧/悬疑/可骇
◎语  言 英语/日语
◎上映日期 2012-03-09(西南偏南电影节)/2012-04-13(美国)
◎IMDb评分  7.0/10 from 308,714 users
◎IMDb链接  http://www.imdb.com/title/tt1259521/
◎豆瓣评分 7.4/10 from 117,161 users
◎豆瓣链接 https://movie.douban.com/subject/3143676/
◎片  长 95分钟
◎导  演 德鲁·高达 Drew Goddard
◎主  演 克里斯汀 康奈利 Kristen Connolly
      理查·詹金斯 Richard Jenkins
      弗兰·克朗茨 Fran Kranz
      布莱德利·惠特福德 Bradley Whitford
      杰西·威廉姆斯 Jesse Williams
      克里斯·海姆斯沃斯 Chris Hemsworth
      安娜·哈彻森 Anna Hutchison
      西格妮·韦弗 Sigourney Weaver
      艾米·阿克 Amy Acker
      布莱恩·J·怀特 Brian J. White

◎简  介

  在一个明媚的日子里,同在一所大学的荷登(杰西·威廉姆斯 Jesse Williams 饰)、马提(弗兰·克朗茨 Fran Kranz 饰)、茱尔丝(安娜·哈彻森 Anna Hutchison 饰)、戴娜(克里斯汀·康奈利 Kristen Connolly 饰)以及科特(克里斯·海姆斯沃斯 Chris Hemsworth 饰)等5人驱车前往位于深山老林的小木屋中度假。他们不晓得的是,自己的一举一动都在一个奥秘机构的监视之下,甚至会自觉不自觉依照那群人的指导进入圈套。“无意”当中,戴娜用拉丁文念出一段咒语,在此以后,长逝土壤之下的丧尸爬了出来,对年轻人们展开血腥大屠杀。而镜头的另一边,奥秘机构的成员喜滋滋看着镜头前的一切。
  蒙昧的年轻人们,为了一个奥秘的目标必须死去……

◎获奖情况

  第18届美国批评家挑选电影奖  (2013)
  最好科幻/可骇片(提名)

  第17届圣地亚哥影评人协会奖  (2012)
  最好原创剧本(提名) 乔斯·韦登

  第25届芝加哥影评人协会奖  (2012)
  最具潜力导演(提名) 德鲁·高达

  第46届堪萨斯影评人协会奖  (2012)
  最好科幻/可骇片

  第12届凤凰城影评人协会奖  (2012)
  年度被疏忽影片(提名)

  第3届豆瓣电影鑫像奖  (2013)
  鑫豆单元 最好落选影片(提名)


  1. Video
  2. ID                                       : 1
  3. Format                                   : HEVC
  4. Format/Info                              : High Efficiency Video Coding
  5. Format profile                           : Main [url=mailto:10@L5.1]10@L5.1[/url]@High
  6. Codec ID                                 : V_MPEGH/ISO/HEVC
  7. Duration                                 : 1 h 35 min
  8. Bit rate                                 : 21.3 Mb/s
  9. Width                                    : 3 840 pixels
  10. Height                                   : 1 600 pixels
  11. Display aspect ratio                     : 2.40:1
  12. Frame rate mode                          : Constant
  13. Frame rate                               : 23.976 (24000/1001) FPS
  14. Color space                              : YUV
  15. Chroma subsampling                       : 4:2:0 (Type 2)
  16. Bit depth                                : 10 bits
  17. Bits/(Pixel*Frame)                       : 0.145
  18. Stream size                              : 14.2GB (80%)
  19. Writing library                          : x265 2.5+58-06979c042350:[Windows][GCC 6.2.1][64 bit] 10bit
  20. Encoding settings                        : cpuid=1050111 / frame-threads=4 / numa-pools=15,15 / wpp / no-pmode / no-pme / no-psnr / no-ssim / log-level=2 / input-csp=1 / input-res=3840x1600 / interlace=0 / total-frames=136747 / level-idc=51 / high-tier=1 / uhd-bd=0 / ref=4 / no-allow-non-conformance / repeat-headers / annexb / aud / hrd / info / hash=0 / no-temporal-layers / no-open-gop / min-keyint=1 / keyint=24 / bframes=4 / b-adapt=2 / b-pyramid / bframe-bias=0 / rc-lookahead=25 / lookahead-slices=4 / scenecut=40 / no-intra-refresh / ctu=64 / min-cu-size=8 / rect / no-amp / max-tu-size=32 / tu-inter-depth=1 / tu-intra-depth=1 / limit-tu=0 / rdoq-level=2 / dynamic-rd=0.00 / no-ssim-rd / signhide / no-tskip / nr-intra=0 / nr-inter=0 / no-constrained-intra / no-strong-intra-smoothing / max-merge=3 / limit-refs=3 / limit-modes / me=3 / subme=3 / merange=57 / temporal-mvp / weightp / no-weightb / no-analyze-src-pics / deblock=-3:-3 / no-sao / no-sao-non-deblock / rd=4 / no-early-skip / rskip / no-fast-intra / no-tskip-fast / no-cu-lossless / no-b-intra / no-splitrd-skip / rdpenalty=0 / psy-rd=2.00 / psy-rdoq=1.00 / no-rd-refine / analysis-reuse-mode=0 / no-lossless / cbqpoffs=0 / crqpoffs=0 / rc=crf / crf=17.0 / qcomp=0.60 / qpstep=4 / stats-write=0 / stats-read=0 / vbv-maxrate=160000 / vbv-bufsize=160000 / vbv-init=0.9 / crf-max=0.0 / crf-min=0.0 / ipratio=1.40 / pbratio=1.30 / aq-mode=1 / aq-strength=1.00 / cutree / zone-count=0 / no-strict-cbr / qg-size=32 / no-rc-grain / qpmax=69 / qpmin=0 / no-const-vbv / sar=1 / overscan=0 / videoformat=5 / range=0 / colorprim=9 / transfer=16 / colormatrix=9 / chromaloc=1 / chromaloc-top=2 / chromaloc-bottom=2 / display-window=0 / master-display=G(13250,34500)B(7500,3000)R(34000,16000)WP(15635,16450)L(10000000,50) / max-cll=1000,239 / min-luma=0 / max-luma=1023 / log2-max-poc-lsb=8 / vui-timing-info / vui-hrd-info / slices=1 / no-opt-qp-pps / no-opt-ref-list-length-pps / no-multi-pass-opt-rps / scenecut-bias=0.05 / no-opt-cu-delta-qp / no-aq-motion / hdr / hdr-opt / no-dhdr10-opt / analysis-reuse-level=5 / scale-factor=0 / refine-intra=0 / refine-inter=0 / refine-mv=0 / no-limit-sao / ctu-info=0 / no-lowpass-dct / refine-mv-type=0 / copy-pic=1
  21. Default                                  : Yes
  22. Forced                                   : No
  23. Color range                              : Limited
  24. Color primaries                          : BT.2020
  25. Transfer characteristics                 : PQ
  26. Matrix coefficients                      : BT.2020 non-constant
  27. Mastering display color primaries        : R: x=0.680000 y=0.320000, G: x=0.265000 y=0.690000, B: x=0.150000 y=0.060000, White point: x=0.312700 y=0.329000
  28. Mastering display luminance              : min: 0.0050 cd/m2, max: 1000.0000 cd/m2
  29. Maximum Content Light Level              : 1000 cd/m2
  30. Maximum Frame-Average Light Level        : 239 cd/m2

  31. Audio #1
  32. ID                                       : 2
  33. Format                                   : TrueHD
  34. Format profile                           : TrueHD+Atmos / TrueHD
  35. Codec ID                                 : A_TRUEHD
  36. Duration                                 : 1 h 35 min
  37. Bit rate mode                            : Variable
  38. Bit rate                                 : 4 432 kb/s
  39. Maximum bit rate                         : 8 064 kb/s
  40. Channel(s)                               : Object Based / 8 channels
  41. Channel positions                        : Object Based / Front: L C R, Side: L R, Back: L R, LFE
  42. Sampling rate                            :  / 48.0 kHz
  43. Frame rate                               : 1 200.000 FPS (40 SPF)
  44. Compression mode                         : Lossless
  45. Stream size                              : 2.94GB (17%)
  46. Language                                 : English
  47. Default                                  : Yes
  48. Forced                                   : No

  49. Audio #2
  50. ID                                       : 3
  51. Format                                   : AC-3
  52. Format/Info                              : Audio Coding 3
  53. Codec ID                                 : A_AC3
  54. Duration                                 : 1 h 35 min
  55. Bit rate mode                            : Constant
  56. Bit rate                                 : 640 kb/s
  57. Channel(s)                               : 6 channels
  58. Channel positions                        : Front: L C R, Side: L R, LFE
  59. Sampling rate                            : 48.0 kHz
  60. Frame rate                               : 31.250 FPS (1536 SPF)
  61. Bit depth                                : 16 bits
  62. Compression mode                         : Lossy
  63. Stream size                              : 435 MiB (2%)
  64. Language                                 : English
  65. Service kind                             : Complete Main
  66. Default                                  : No
  67. Forced                                   : No

  68. Audio #3
  69. ID                                       : 4
  70. Format                                   : AC-3
  71. Format/Info                              : Audio Coding 3
  72. Codec ID                                 : A_AC3
  73. Duration                                 : 1 h 35 min
  74. Bit rate mode                            : Constant
  75. Bit rate                                 : 192 kb/s
  76. Channel(s)                               : 2 channels
  77. Channel positions                        : Front: L R
  78. Sampling rate                            : 48.0 kHz
  79. Frame rate                               : 31.250 FPS (1536 SPF)
  80. Bit depth                                : 16 bits
  81. Compression mode                         : Lossy
  82. Stream size                              : 131 MiB (1%)
  83. Title                                    : Commentary with director/writer Drew Goddard, and producer/writer Joss Whedon
  84. Language                                 : English
  85. Service kind                             : Complete Main
  86. Default                                  : No
  87. Forced                                   : No

  88. Text #1
  89. ID                                       : 5
  90. Format                                   : PGS
  91. Muxing mode                              : zlib
  92. Codec ID                                 : S_HDMV/PGS
  93. Codec ID/Info                            : Picture based subtitle format used on BDs/HD-DVDs
  94. Duration                                 : 1 h 28 min
  95. Bit rate                                 : 30.1 kb/s
  96. Count of elements                        : 1968
  97. Stream size                              : 19.1 MiB (0%)
  98. Language                                 : English
  99. Default                                  : No
  100. Forced                                   : No

  101. Text #2
  102. ID                                       : 6
  103. Format                                   : PGS
  104. Muxing mode                              : zlib
  105. Codec ID                                 : S_HDMV/PGS
  106. Codec ID/Info                            : Picture based subtitle format used on BDs/HD-DVDs
  107. Duration                                 : 1 h 28 min
  108. Bit rate                                 : 33.4 kb/s
  109. Count of elements                        : 2216
  110. Stream size                              : 21.1 MiB (0%)
  111. Title                                    : SDH
  112. Language                                 : English
  113. Default                                  : No
  114. Forced                                   : No

  115. Text #3
  116. ID                                       : 7
  117. Format                                   : PGS
  118. Muxing mode                              : zlib
  119. Codec ID                                 : S_HDMV/PGS
  120. Codec ID/Info                            : Picture based subtitle format used on BDs/HD-DVDs
  121. Duration                                 : 1 h 28 min
  122. Bit rate                                 : 29.2 kb/s
  123. Count of elements                        : 1984
  124. Stream size                              : 18.4 MiB (0%)
  125. Language                                 : Spanish
  126. Default                                  : No
  127. Forced                                   : No

  128. Menu
  129. 00:00:00.000                             : en:00:00:00.000
  130. 00:05:42.425                             : en:00:05:42.425
  131. 00:12:31.709                             : en:00:12:31.709
  132. 00:18:40.077                             : en:00:18:40.077
  133. 00:24:22.503                             : en:00:24:22.503
  134. 00:29:27.140                             : en:00:29:27.140
  135. 00:35:02.642                             : en:00:35:02.642
  136. 00:41:40.164                             : en:00:41:40.164
  137. 00:46:43.759                             : en:00:46:43.759
  138. 00:50:57.805                             : en:00:50:57.805
  139. 00:54:43.822                             : en:00:54:43.822
  140. 01:06:49.130                             : en:01:06:49.130
  141. 01:12:50.116                             : en:01:12:50.116
  142. 01:16:45.976                             : en:01:16:45.976
  143. 01:21:34.014                             : en:01:21:34.014
  144. 01:26:59.506                             : en:01:26:59.506



复制代码
复制代码
林中小屋/尸营客店 The.Cabin.in.the.Woods.2012.2160p.BluRay.x265.10bit.HDR.TrueHD.7.1.Atmos-TERMiNAL 17.74GB-2.png 林中小屋/尸营客店 The.Cabin.in.the.Woods.2012.2160p.BluRay.x265.10bit.HDR.TrueHD.7.1.Atmos-TERMiNAL 17.74GB-3.png 林中小屋/尸营客店 The.Cabin.in.the.Woods.2012.2160p.BluRay.x265.10bit.HDR.TrueHD.7.1.Atmos-TERMiNAL 17.74GB-4.png 林中小屋/尸营客店 The.Cabin.in.the.Woods.2012.2160p.BluRay.x265.10bit.HDR.TrueHD.7.1.Atmos-TERMiNAL 17.74GB-5.png 林中小屋/尸营客店 The.Cabin.in.the.Woods.2012.2160p.BluRay.x265.10bit.HDR.TrueHD.7.1.Atmos-TERMiNAL 17.74GB-6.png 林中小屋/尸营客店 The.Cabin.in.the.Woods.2012.2160p.BluRay.x265.10bit.HDR.TrueHD.7.1.Atmos-TERMiNAL 17.74GB-7.png





回复

使用道具 举报

懒得打字嘛,点击右侧快捷回复 【右侧内容,后台自定义】
您需要登录后才可以回帖 登录 | 立即加入

本版积分规则

Archiver| |网站地图

Copyright © 2024 Comsenz Inc. Powered by 蓝光电影网

本站内容由用户自主分享和转载自互联网,转载目的在于传递更多信息,并不代表本网赞同其观点和对其真实性负责。

如有侵权、违反国家法律政策行为,请联系我们,我们会第一时间及时清除和处理!

举报反馈邮箱:4k1080.com@gmail.com

快速回复 返回顶部 返回列表