找回密码

查看: 3658|回复: 5

[喜剧] 林中小屋/尸营旅舍 The.Cabin.in.the.Woods.2012.1080p.BluRay.x264.TrueHD.7.1.Atmos-SWTYBLZ 13.66GB

[复制链接]
蓝光币
1984
发表于 2017-12-22 17:22:05 | 显示全部楼层 |阅读模式
134357v0lhn8hl8rzz828r.jpg
◎译  名 林中小屋/尸营客店/诡屋/林中屋
◎片  名 The Cabin in the Woods
◎年  代 2012
◎产  地 美国
◎类  别 笑剧/悬疑/可骇
◎语  言 英语/日语
◎上映日期 2012-03-09(西南偏南电影节)/2012-04-13(美国)
◎IMDb评分  7.0/10 from 308,712 users
◎IMDb链接  http://www.imdb.com/title/tt1259521/
◎豆瓣评分 7.4/10 from 117,161 users
◎豆瓣链接 https://movie.douban.com/subject/3143676/
◎片  长 95分钟
◎导  演 德鲁·高达 Drew Goddard
◎主  演 克里斯汀 康奈利 Kristen Connolly
      理查·詹金斯 Richard Jenkins
      弗兰·克朗茨 Fran Kranz
      布莱德利·惠特福德 Bradley Whitford
      杰西·威廉姆斯 Jesse Williams
      克里斯·海姆斯沃斯 Chris Hemsworth
      安娜·哈彻森 Anna Hutchison
      西格妮·韦弗 Sigourney Weaver
      艾米·阿克 Amy Acker
      布莱恩·J·怀特 Brian J. White

◎简  介

  在一个明媚的日子里,同在一所大学的荷登(杰西·威廉姆斯 Jesse Williams 饰)、马提(弗兰·克朗茨 Fran Kranz 饰)、茱尔丝(安娜·哈彻森 Anna Hutchison 饰)、戴娜(克里斯汀·康奈利 Kristen Connolly 饰)以及科特(克里斯·海姆斯沃斯 Chris Hemsworth 饰)等5人驱车前往位于深山老林的小木屋中度假。他们不晓得的是,自己的一举一动都在一个奥秘机构的监视之下,甚至会自觉不自觉依照那群人的指导进入圈套。“无意”当中,戴娜用拉丁文念出一段咒语,在此以后,长逝土壤之下的丧尸爬了出来,对年轻人们展开血腥大屠杀。而镜头的另一边,奥秘机构的成员喜滋滋看着镜头前的一切。
  蒙昧的年轻人们,为了一个奥秘的目标必须死去……

◎获奖情况

  第18届美国批评家挑选电影奖  (2013)
  最好科幻/可骇片(提名)

  第17届圣地亚哥影评人协会奖  (2012)
  最好原创剧本(提名) 乔斯·韦登

  第25届芝加哥影评人协会奖  (2012)
  最具潜力导演(提名) 德鲁·高达

  第46届堪萨斯影评人协会奖  (2012)
  最好科幻/可骇片

  第12届凤凰城影评人协会奖  (2012)
  年度被疏忽影片(提名)

  第3届豆瓣电影鑫像奖  (2013)
  鑫豆单元 最好落选影片(提名)


  1. Video
  2. ID                                       : 1
  3. Format                                   : AVC
  4. Format/Info                              : Advanced Video Codec
  5. Format profile                           : [email]High@L4.1[/email]
  6. Format settings                          : CABAC / 5 Ref Frames
  7. Format settings, CABAC                   : Yes
  8. Format settings, ReFrames                : 5 frames
  9. Codec ID                                 : V_MPEG4/ISO/AVC
  10. Duration                                 : 1 h 35 min
  11. Bit rate                                 : 15.4 Mb/s
  12. Width                                    : 1 920 pixels
  13. Height                                   : 800 pixels
  14. Display aspect ratio                     : 2.40:1
  15. Frame rate mode                          : Constant
  16. Frame rate                               : 23.976 (24000/1001) FPS
  17. Color space                              : YUV
  18. Chroma subsampling                       : 4:2:0
  19. Bit depth                                : 8 bits
  20. Scan type                                : Progressive
  21. Bits/(Pixel*Frame)                       : 0.418
  22. Stream size                              : 10.2GB (75%)
  23. Title                                    : The.Cabin.in.the.Woods.2012.1080p.BluRay.x264.TrueHD.7.1.Atmos-SWTYBLZ
  24. Writing library                          : x264 core 148 r2748 97eaef2
  25. Encoding settings                        : cabac=1 / ref=5 / deblock=1:-1:-1 / analyse=0x3:0x133 / me=umh / subme=10 / psy=1 / psy_rd=1.00:0.15 / mixed_ref=1 / me_range=48 / chroma_me=1 / trellis=2 / 8x8dct=1 / cqm=0 / deadzone=21,11 / fast_pskip=1 / chroma_qp_offset=-3 / threads=25 / lookahead_threads=4 / sliced_threads=0 / nr=0 / decimate=0 / interlaced=0 / bluray_compat=0 / constrained_intra=0 / bframes=8 / b_pyramid=2 / b_adapt=2 / b_bias=0 / direct=3 / weightb=1 / open_gop=0 / weightp=2 / keyint=250 / keyint_min=23 / scenecut=40 / intra_refresh=0 / rc_lookahead=60 / rc=crf / mbtree=1 / crf=15.0 / qcomp=0.60 / qpmin=0 / qpmax=69 / qpstep=4 / ip_ratio=1.40 / aq=1:1.00
  26. Default                                  : Yes
  27. Forced                                   : No

  28. Audio #1
  29. ID                                       : 2
  30. Format                                   : TrueHD
  31. Format profile                           : TrueHD+Atmos / TrueHD
  32. Codec ID                                 : A_TRUEHD
  33. Duration                                 : 1 h 35 min
  34. Bit rate mode                            : Variable
  35. Bit rate                                 : 4 432 kb/s
  36. Maximum bit rate                         : 8 064 kb/s
  37. Channel(s)                               : Object Based / 8 channels
  38. Channel positions                        : Object Based / Front: L C R, Side: L R, Back: L R, LFE
  39. Sampling rate                            :  / 48.0 kHz
  40. Frame rate                               : 1 200.000 FPS (40 SPF)
  41. Compression mode                         : Lossless
  42. Delay relative to video                  : 1 ms
  43. Stream size                              : 2.94GB (22%)
  44. Title                                    : The.Cabin.in.the.Woods.2012.1080p.BluRay.x264.TrueHD.7.1.Atmos-SWTYBLZ
  45. Language                                 : English
  46. Default                                  : Yes
  47. Forced                                   : No

  48. Audio #2
  49. ID                                       : 3
  50. Format                                   : AC-3
  51. Format/Info                              : Audio Coding 3
  52. Codec ID                                 : A_AC3
  53. Duration                                 : 1 h 35 min
  54. Bit rate mode                            : Constant
  55. Bit rate                                 : 640 kb/s
  56. Channel(s)                               : 6 channels
  57. Channel positions                        : Front: L C R, Side: L R, LFE
  58. Sampling rate                            : 48.0 kHz
  59. Frame rate                               : 31.250 FPS (1536 SPF)
  60. Bit depth                                : 16 bits
  61. Compression mode                         : Lossy
  62. Delay relative to video                  : 1 ms
  63. Stream size                              : 435 MiB (3%)
  64. Title                                    : The.Cabin.in.the.Woods.2012.1080p.BluRay.x264.TrueHD.7.1.Atmos-SWTYBLZ
  65. Language                                 : English
  66. Service kind                             : Complete Main
  67. Default                                  : No
  68. Forced                                   : No

  69. Text #1
  70. ID                                       : 4
  71. Format                                   : UTF-8
  72. Codec ID                                 : S_TEXT/UTF8
  73. Codec ID/Info                            : UTF-8 Plain Text
  74. Duration                                 : 1 h 28 min
  75. Bit rate                                 : 45 b/s
  76. Count of elements                        : 983
  77. Stream size                              : 29.2 KiB (0%)
  78. Title                                    : English-SRT
  79. Language                                 : English
  80. Default                                  : Yes
  81. Forced                                   : No

  82. Text #2
  83. ID                                       : 5
  84. Format                                   : PGS
  85. Muxing mode                              : zlib
  86. Codec ID                                 : S_HDMV/PGS
  87. Codec ID/Info                            : Picture based subtitle format used on BDs/HD-DVDs
  88. Duration                                 : 1 h 28 min
  89. Bit rate                                 : 30.1 kb/s
  90. Count of elements                        : 1968
  91. Stream size                              : 19.1 MiB (0%)
  92. Title                                    : English-PGS
  93. Language                                 : English
  94. Default                                  : No
  95. Forced                                   : No

  96. Text #3
  97. ID                                       : 6
  98. Format                                   : PGS
  99. Muxing mode                              : zlib
  100. Codec ID                                 : S_HDMV/PGS
  101. Codec ID/Info                            : Picture based subtitle format used on BDs/HD-DVDs
  102. Duration                                 : 1 h 28 min
  103. Bit rate                                 : 33.4 kb/s
  104. Count of elements                        : 2216
  105. Stream size                              : 21.1 MiB (0%)
  106. Title                                    : English-SDH-PGS
  107. Language                                 : English
  108. Default                                  : No
  109. Forced                                   : No

  110. Text #4
  111. ID                                       : 7
  112. Format                                   : PGS
  113. Muxing mode                              : zlib
  114. Codec ID                                 : S_HDMV/PGS
  115. Codec ID/Info                            : Picture based subtitle format used on BDs/HD-DVDs
  116. Duration                                 : 1 h 28 min
  117. Bit rate                                 : 29.2 kb/s
  118. Count of elements                        : 1984
  119. Stream size                              : 18.4 MiB (0%)
  120. Title                                    : Spanish-PGS
  121. Language                                 : Spanish
  122. Default                                  : No
  123. Forced                                   : No

  124. Text #5
  125. ID                                       : 8
  126. Format                                   : PGS
  127. Muxing mode                              : zlib
  128. Codec ID                                 : S_HDMV/PGS
  129. Codec ID/Info                            : Picture based subtitle format used on BDs/HD-DVDs
  130. Duration                                 : 1 h 27 min
  131. Bit rate                                 : 178 b/s
  132. Count of elements                        : 14
  133. Stream size                              : 114 KiB (0%)
  134. Title                                    : French-PGS
  135. Language                                 : French
  136. Default                                  : No
  137. Forced                                   : No

  138. Menu
  139. 00:00:00.000                             : en:Chapter 1
  140. 00:05:42.425                             : en:Chapter 2
  141. 00:12:31.709                             : en:Chapter 3
  142. 00:18:40.077                             : en:Chapter 4
  143. 00:24:22.502                             : en:Chapter 5
  144. 00:29:27.140                             : en:Chapter 6
  145. 00:35:02.642                             : en:Chapter 7
  146. 00:41:40.164                             : en:Chapter 8
  147. 00:46:43.759                             : en:Chapter 9
  148. 00:50:57.804                             : en:Chapter 10
  149. 00:54:43.822                             : en:Chapter 11
  150. 01:06:49.130                             : en:Chapter 12
  151. 01:12:50.115                             : en:Chapter 13
  152. 01:16:45.976                             : en:Chapter 14
  153. 01:21:34.014                             : en:Chapter 15
  154. 01:26:59.505                             : en:Chapter 16



复制代码
复制代码
134358gllep8e2ibqypxye.jpg 134359gmdwviqx0wz442kw.jpg 134401yq44hp1tzty8iy1f.jpg 134402p8w2zoz6ou6u3g1w.jpg 134404jxsn4xsedx4f0q5z.jpg 134405vka6cwk26umwauwa.jpg





回复

使用道具 举报

懒得打字嘛,点击右侧快捷回复 【右侧内容,后台自定义】
您需要登录后才可以回帖 登录 | 立即加入

本版积分规则

Archiver| |网站地图

Copyright © 2024 Comsenz Inc. Powered by 蓝光电影网

本站内容由用户自主分享和转载自互联网,转载目的在于传递更多信息,并不代表本网赞同其观点和对其真实性负责。

如有侵权、违反国家法律政策行为,请联系我们,我们会第一时间及时清除和处理!

举报反馈邮箱:4k1080.com@gmail.com

快速回复 返回顶部 返回列表