找回密码

查看: 3900|回复: 9

E.T.外星人/外星人E.T. E.T.the.Extra-Terrestrial.1982.2160p.BluRay.x264.8bit.SDR.DTS-X.7.1-SWTYBLZ 26.17GB

[复制链接]
蓝光币
1982
发表于 2017-12-22 21:20:15 | 显示全部楼层 |阅读模式
E.T.外星人/外星人E.T. E.T.the.Extra-Terrestrial.1982.2160p.BluRay.x264.8bit.SDR.DTS-X.7.1-SWTYBLZ 26.17GB-1.jpg
◎译  名 E.T.外星人/外星人E.T.
◎片  名 E.T.: The Extra-Terrestrial
◎年  代 1982
◎产  地 美国
◎类  别 剧情/科幻
◎语  言 英语
◎上映日期 1982-05-26(戛纳电影节)/1982-06-11(美国)
◎IMDb评分  7.9/10 from 309,856 users
◎IMDb链接  http://www.imdb.com/title/tt0083866/
◎豆瓣评分 8.5/10 from 150,525 users
◎豆瓣链接 https://movie.douban.com/subject/1294638/
◎片  长 115分钟/120分钟(extended version)
◎导  演 Steven Spielberg
◎主  演 Henry Thomas
      Dee Wallace
      Robert MacNaughton
      Drew Barrymore
      Peter Coyote

◎简  介

  小埃利奥特(亨利托马斯)发现一个意外走失的小外星人,他静静的收留了小外星人,并把他先容给自己的哥哥和妹妹。孩子们与外星人友爱的相处,给他吃巧克力,带他去郊外寻觅家人留下的痕迹,并为小外星人的各种特异功用兴奋不已。渐渐的埃利奥特与外星人之间构成了某种奇妙的联系,跨越了言语相同的障碍。
  可是未几,外星人的存在被大人们知晓,无情的追捕行动展开了。ET被抓进尝试室,小埃利奥特也一病不起。孩子们愤慨了,他们自觉构造起来,救援外星人。埃利奥特也在心灵的感化下苏醒过来,加入救援行动。他们能成功么?



  1. Video
  2. ID                                       : 1
  3. Format                                   : AVC
  4. Format/Info                              : Advanced Video Codec
  5. Format profile                           : [url=mailto:High@L5.1]High@L5.1[/url]
  6. Format settings                          : CABAC / 5 Ref Frames
  7. Format settings, CABAC                   : Yes
  8. Format settings, RefFrames               : 5 frames
  9. Codec ID                                 : V_MPEG4/ISO/AVC
  10. Duration                                 : 1 h 54 min
  11. Bit rate                                 : 25.7 Mb/s
  12. Width                                    : 3 840 pixels
  13. Height                                   : 2 076 pixels
  14. Display aspect ratio                     : 1.85:1
  15. Frame rate mode                          : Constant
  16. Frame rate                               : 23.976 (24000/1001) FPS
  17. Color space                              : YUV
  18. Chroma subsampling                       : 4:2:0
  19. Bit depth                                : 8 bits
  20. Scan type                                : Progressive
  21. Bits/(Pixel*Frame)                       : 0.135
  22. Stream size                              : 20.6GB (80%)
  23. Title                                    : E.T.the.Extra-Terrestrial.1982.2160p.BluRay.x264.8bit.SDR.DTS-X.7.1-SWTYBLZ
  24. Writing library                          : x264 core 148 r2748 97eaef2
  25. Encoding settings                        : cabac=1 / ref=5 / deblock=1:-1:-1 / analyse=0x3:0x113 / me=umh / subme=10 / psy=1 / psy_rd=1.00:0.15 / mixed_ref=1 / me_range=48 / chroma_me=1 / trellis=2 / 8x8dct=1 / cqm=0 / deadzone=21,11 / fast_pskip=1 / chroma_qp_offset=-3 / threads=65 / lookahead_threads=5 / sliced_threads=0 / nr=0 / decimate=0 / interlaced=0 / bluray_compat=0 / constrained_intra=0 / bframes=3 / b_pyramid=2 / b_adapt=2 / b_bias=0 / direct=3 / weightb=1 / open_gop=0 / weightp=2 / keyint=250 / keyint_min=23 / scenecut=40 / intra_refresh=0 / rc_lookahead=50 / rc=crf / mbtree=1 / crf=22.0 / qcomp=0.60 / qpmin=0 / qpmax=69 / qpstep=4 / ip_ratio=1.40 / aq=1:1.00
  26. Language                                 : English
  27. Default                                  : Yes
  28. Forced                                   : No

  29. Audio #1
  30. ID                                       : 2
  31. Format                                   : DTS
  32. Format/Info                              : Digital Theater Systems
  33. Format profile                           : X / MA / Core
  34. Codec ID                                 : A_DTS
  35. Duration                                 : 1 h 54 min
  36. Bit rate mode                            : Variable / Variable / Constant
  37. Bit rate                                 : 5 910 kb/s / 5 910 kb/s / 1 509 kb/s
  38. Channel(s)                               : Object Based / 8 channels / 6 channels
  39. Channel positions                        : Object Based / Front: L C R, Side: L R, Back: L R, LFE / Front: L C R, Side: L R, LFE
  40. Sampling rate                            :  / 48.0 kHz / 48.0 kHz
  41. Frame rate                               : 93.750 FPS (512 SPF)
  42. Bit depth                                :  / 24 bits / 24 bits
  43. Compression mode                         :  / Lossless / Lossy
  44. Stream size                              : 4.73GB (18%)
  45. Title                                    : E.T.the.Extra-Terrestrial.1982.2160p.BluRay.x264.8bit.SDR.DTS-X.7.1-SWTYBLZ
  46. Language                                 : English
  47. Default                                  : Yes
  48. Forced                                   : No

  49. Audio #2
  50. ID                                       : 3
  51. Format                                   : AC-3
  52. Format/Info                              : Audio Coding 3
  53. Codec ID                                 : A_AC3
  54. Duration                                 : 1 h 54 min
  55. Bit rate mode                            : Constant
  56. Bit rate                                 : 640 kb/s
  57. Channel(s)                               : 6 channels
  58. Channel positions                        : Front: L C R, Side: L R, LFE
  59. Sampling rate                            : 48.0 kHz
  60. Frame rate                               : 31.250 FPS (1536 SPF)
  61. Bit depth                                : 16 bits
  62. Compression mode                         : Lossy
  63. Stream size                              : 524 MiB (2%)
  64. Title                                    : E.T.the.Extra-Terrestrial.1982.2160p.BluRay.x264.8bit.SDR.DTS-X.7.1-SWTYBLZ
  65. Language                                 : English
  66. Service kind                             : Complete Main
  67. Default                                  : No
  68. Forced                                   : No

  69. Text #1
  70. ID                                       : 4
  71. Format                                   : UTF-8
  72. Codec ID                                 : S_TEXT/UTF8
  73. Codec ID/Info                            : UTF-8 Plain Text
  74. Duration                                 : 1 h 42 min
  75. Bit rate                                 : 32 b/s
  76. Count of elements                        : 933
  77. Stream size                              : 24.7 KiB (0%)
  78. Title                                    : English-SRT
  79. Language                                 : English
  80. Default                                  : Yes
  81. Forced                                   : No

  82. Text #2
  83. ID                                       : 5
  84. Format                                   : PGS
  85. Muxing mode                              : zlib
  86. Codec ID                                 : S_HDMV/PGS
  87. Codec ID/Info                            : Picture based subtitle format used on BDs/HD-DVDs
  88. Duration                                 : 1 h 47 min
  89. Bit rate                                 : 27.6 kb/s
  90. Count of elements                        : 2370
  91. Stream size                              : 21.3 MiB (0%)
  92. Title                                    : English-PGS
  93. Language                                 : English
  94. Default                                  : No
  95. Forced                                   : No

  96. Text #3
  97. ID                                       : 6
  98. Format                                   : PGS
  99. Muxing mode                              : zlib
  100. Codec ID                                 : S_HDMV/PGS
  101. Codec ID/Info                            : Picture based subtitle format used on BDs/HD-DVDs
  102. Duration                                 : 1 h 42 min
  103. Bit rate                                 : 19.3 kb/s
  104. Count of elements                        : 1818
  105. Stream size                              : 14.1 MiB (0%)
  106. Title                                    : French-PGS
  107. Language                                 : French
  108. Default                                  : No
  109. Forced                                   : No

  110. Text #4
  111. ID                                       : 7
  112. Format                                   : PGS
  113. Muxing mode                              : zlib
  114. Codec ID                                 : S_HDMV/PGS
  115. Codec ID/Info                            : Picture based subtitle format used on BDs/HD-DVDs
  116. Duration                                 : 1 h 40 min
  117. Bit rate                                 : 17.9 kb/s
  118. Count of elements                        : 1584
  119. Stream size                              : 12.9 MiB (0%)
  120. Title                                    : Spanish-PGS
  121. Language                                 : Spanish
  122. Default                                  : No
  123. Forced                                   : No

  124. Text #5
  125. ID                                       : 8
  126. Format                                   : PGS
  127. Muxing mode                              : zlib
  128. Codec ID                                 : S_HDMV/PGS
  129. Codec ID/Info                            : Picture based subtitle format used on BDs/HD-DVDs
  130. Duration                                 : 1 h 41 min
  131. Bit rate                                 : 12.6 kb/s
  132. Count of elements                        : 1533
  133. Stream size                              : 9.23 MiB (0%)
  134. Title                                    : Japanese-PGS
  135. Language                                 : Japanese
  136. Default                                  : No
  137. Forced                                   : No

  138. Text #6
  139. ID                                       : 9
  140. Format                                   : PGS
  141. Muxing mode                              : zlib
  142. Codec ID                                 : S_HDMV/PGS
  143. Codec ID/Info                            : Picture based subtitle format used on BDs/HD-DVDs
  144. Duration                                 : 1 h 54 min
  145. Bit rate                                 : 15.0 kb/s
  146. Count of elements                        : 1822
  147. Stream size                              : 12.2 MiB (0%)
  148. Title                                    : Portuguese-PGS
  149. Language                                 : Portuguese
  150. Default                                  : No
  151. Forced                                   : No

  152. Text #7
  153. ID                                       : 10
  154. Format                                   : PGS
  155. Muxing mode                              : zlib
  156. Codec ID                                 : S_HDMV/PGS
  157. Codec ID/Info                            : Picture based subtitle format used on BDs/HD-DVDs
  158. Duration                                 : 1 h 48 min
  159. Bit rate                                 : 15.9 kb/s
  160. Count of elements                        : 1812
  161. Stream size                              : 12.3 MiB (0%)
  162. Title                                    : Chinese-PGS
  163. Language                                 : Chinese
  164. Default                                  : No
  165. Forced                                   : No

  166. Menu
  167. 00:00:00.000                             : en:Chapter 1
  168. 00:04:49.956                             : en:Chapter 2
  169. 00:08:03.357                             : en:Chapter 3
  170. 00:09:57.096                             : en:Chapter 4
  171. 00:12:36.714                             : en:Chapter 5
  172. 00:19:24.580                             : en:Chapter 6
  173. 00:31:32.849                             : en:Chapter 7
  174. 00:36:52.293                             : en:Chapter 8
  175. 00:43:13.757                             : en:Chapter 9
  176. 00:50:34.197                             : en:Chapter 10
  177. 00:57:44.794                             : en:Chapter 11
  178. 01:00:34.130                             : en:Chapter 12
  179. 01:04:13.474                             : en:Chapter 13
  180. 01:11:30.577                             : en:Chapter 14
  181. 01:15:23.143                             : en:Chapter 15
  182. 01:23:37.345                             : en:Chapter 16
  183. 01:30:29.841                             : en:Chapter 17
  184. 01:35:41.902                             : en:Chapter 18
  185. 01:43:26.241                             : en:Chapter 19
  186. 01:50:34.919                             : en:Chapter 20

复制代码
复制代码
E.T.外星人/外星人E.T. E.T.the.Extra-Terrestrial.1982.2160p.BluRay.x264.8bit.SDR.DTS-X.7.1-SWTYBLZ 26.17GB-2.png E.T.外星人/外星人E.T. E.T.the.Extra-Terrestrial.1982.2160p.BluRay.x264.8bit.SDR.DTS-X.7.1-SWTYBLZ 26.17GB-3.png E.T.外星人/外星人E.T. E.T.the.Extra-Terrestrial.1982.2160p.BluRay.x264.8bit.SDR.DTS-X.7.1-SWTYBLZ 26.17GB-4.png E.T.外星人/外星人E.T. E.T.the.Extra-Terrestrial.1982.2160p.BluRay.x264.8bit.SDR.DTS-X.7.1-SWTYBLZ 26.17GB-5.png E.T.外星人/外星人E.T. E.T.the.Extra-Terrestrial.1982.2160p.BluRay.x264.8bit.SDR.DTS-X.7.1-SWTYBLZ 26.17GB-6.png E.T.外星人/外星人E.T. E.T.the.Extra-Terrestrial.1982.2160p.BluRay.x264.8bit.SDR.DTS-X.7.1-SWTYBLZ 26.17GB-7.png E.T.外星人/外星人E.T. E.T.the.Extra-Terrestrial.1982.2160p.BluRay.x264.8bit.SDR.DTS-X.7.1-SWTYBLZ 26.17GB-8.png





回复

使用道具 举报

蓝光币
60
发表于 2017-12-23 21:50:47 | 显示全部楼层
粉丝的范德萨范德萨发生过十个十个
回复

使用道具 举报

蓝光币
899
发表于 2017-12-25 10:37:37 | 显示全部楼层
感谢分享,很不错,
回复

使用道具 举报

蓝光币
2
发表于 2023-6-8 21:07:06 | 显示全部楼层
楼主发贴辛苦了,谢谢楼主分享!我觉得蓝光电影网是注册对了!
回复

使用道具 举报

懒得打字嘛,点击右侧快捷回复 【右侧内容,后台自定义】
您需要登录后才可以回帖 登录 | 立即加入

本版积分规则

Archiver| |网站地图

Copyright © 2024 Comsenz Inc. Powered by 蓝光电影网

本站内容由用户自主分享和转载自互联网,转载目的在于传递更多信息,并不代表本网赞同其观点和对其真实性负责。

如有侵权、违反国家法律政策行为,请联系我们,我们会第一时间及时清除和处理!

举报反馈邮箱:4k1080.com@gmail.com

快速回复 返回顶部 返回列表