找回密码

查看: 2766|回复: 1

超能敢死队/捉鬼敢死队3 Ghostbusters.2016.EXTENDED.2160p.BluRay.REMUX.HEVC.DTS-HD.MA.TrueHD.7.1.Atmos-FGT 55.66GB

[复制链接]
蓝光币
1982
发表于 2017-12-24 12:56:24 | 显示全部楼层 |阅读模式

◎译  名 超能敢死队/捉鬼敢死队3
◎片  名 Ghostbusters
◎年  代 2016
◎产  地 美国
◎类  别 行动/笑剧/科幻
◎语  言 英语
◎上映日期 2016-07-15(美国)
◎IMDb评分  5.3/10 from 161,124 users
◎IMDb链接  http://www.imdb.com/title/tt1289401/
◎豆瓣评分 5.9/10 from 20,789 users
◎豆瓣链接 https://movie.douban.com/subject/3212398/
◎片  长 116分钟/134分钟(加长版)
◎导  演 保罗·费格 Paul Feig
◎主  演 梅丽莎·麦卡西 Melissa McCarthy
      克里斯汀·韦格 Kristen Wiig
      凯特·麦克金农 Kate McKinnon
      莱斯莉·琼斯 Leslie Jones
      克里斯·海姆斯沃斯 Chris Hemsworth
      比尔·默瑞 Bill Murray
      西格妮·韦弗 Sigourney Weaver
      塞西莉·斯特朗 Cecily Strong
      迈克尔·威廉姆斯 Michael K. Williams
      丹·艾克罗伊德 Dan Aykroyd
      安迪·加西亚 Andy Garcia
      内森·科德里 Nathan Corddry
      马特·沃尔什 Matt Walsh
      托比·胡斯 Toby Huss
      埃涅·赫德森 Ernie Hudson

◎简  介

  哥伦比亚大学教授Erin Gilbert(克里斯汀·韦格 Kristen Wiig 饰)和Abby Yates(梅丽莎·麦卡西 Melissa McCarthy 饰)是合作愉快的作家。现在,为了告诉人们“鬼魂是存在的”,她们将一路编著一本关于鬼魂的书籍。当对“鬼魂”的深 入研讨中,当“鬼魂”入侵她们所居住的城市时,她们和别的两个同伴Jillian Holtzmann(凯特·麦克金农 Kate McKinnon 饰)、Patty Tolan(莱斯莉·琼斯 Leslie Jones 饰)一路投入到拯救城市、拯救天下的行动中……


  1. Video
  2. ID                                       : 1
  3. Format                                   : HEVC
  4. Format/Info                              : High Efficiency Video Coding
  5. Format profile                           : Main [url=mailto:10@L5.1]10@L5.1[/url]@High
  6. Codec ID                                 : V_MPEGH/ISO/HEVC
  7. Duration                                 : 2 h 13 min
  8. Bit rate                                 : 49.0 Mb/s
  9. Width                                    : 3 840 pixels
  10. Height                                   : 2 160 pixels
  11. Display aspect ratio                     : 16:9
  12. Frame rate mode                          : Constant
  13. Frame rate                               : 23.976 (24000/1001) FPS
  14. Color space                              : YUV
  15. Chroma subsampling                       : 4:2:0 (Type 2)
  16. Bit depth                                : 10 bits
  17. Bits/(Pixel*Frame)                       : 0.246
  18. Stream size                              : 45.8GB (82%)
  19. Title                                    : Ghostbusters.2016.EXTENDED.2160p.BluRay.REMUX.HEVC.DTS-HD.MA.TrueHD.7.1.Atmos-FGT
  20. Default                                  : Yes
  21. Forced                                   : No
  22. Color range                              : Limited
  23. Color primaries                          : BT.2020
  24. Transfer characteristics                 : PQ
  25. Matrix coefficients                      : BT.2020 non-constant
  26. Mastering display color primaries        : R: x=0.680000 y=0.320000, G: x=0.265000 y=0.690000, B: x=0.150000 y=0.060000, White point: x=0.312700 y=0.329000
  27. Mastering display luminance              : min: 0.0050 cd/m2, max: 4000.0000 cd/m2
  28. Maximum Content Light Level              : 10000 cd/m2
  29. Maximum Frame-Average Light Level        : 1437 cd/m2

  30. Audio #1
  31. ID                                       : 2
  32. Format                                   : TrueHD
  33. Format profile                           : TrueHD+Atmos / TrueHD
  34. Codec ID                                 : A_TRUEHD
  35. Duration                                 : 2 h 13 min
  36. Bit rate mode                            : Variable
  37. Bit rate                                 : 4 885 kb/s
  38. Maximum bit rate                         : 8 019 kb/s
  39. Channel(s)                               : Object Based / 8 channels
  40. Channel positions                        : Object Based / Front: L C R, Side: L R, Back: L R, LFE
  41. Sampling rate                            :  / 48.0 kHz
  42. Frame rate                               : 1 200.000 FPS (40 SPF)
  43. Compression mode                         : Lossless
  44. Stream size                              : 4.56GB (8%)
  45. Title                                    : Ghostbusters.2016.EXTENDED.2160p.BluRay.REMUX.HEVC.DTS-HD.MA.TrueHD.7.1.Atmos-FGT
  46. Language                                 : English
  47. Default                                  : Yes
  48. Forced                                   : No

  49. Audio #2
  50. ID                                       : 3
  51. Format                                   : DTS
  52. Format/Info                              : Digital Theater Systems
  53. Format profile                           : MA / Core
  54. Codec ID                                 : A_DTS
  55. Duration                                 : 2 h 13 min
  56. Bit rate mode                            : Variable / Constant
  57. Bit rate                                 : 3 840 kb/s / 1 509 kb/s
  58. Channel(s)                               : 8 channels / 6 channels
  59. Channel positions                        : Front: L C R, Side: L R, Back: L R, LFE / Front: L C R, Side: L R, LFE
  60. Sampling rate                            : 48.0 kHz
  61. Frame rate                               : 93.750 FPS (512 SPF)
  62. Bit depth                                : 24 bits
  63. Compression mode                         : Lossless / Lossy
  64. Stream size                              : 3.59GB (6%)
  65. Title                                    : Ghostbusters.2016.EXTENDED.2160p.BluRay.REMUX.HEVC.DTS-HD.MA.TrueHD.7.1.Atmos-FGT
  66. Language                                 : English
  67. Default                                  : No
  68. Forced                                   : No

  69. Audio #3
  70. ID                                       : 4
  71. Format                                   : AC-3
  72. Format/Info                              : Audio Coding 3
  73. Codec ID                                 : A_AC3
  74. Duration                                 : 2 h 13 min
  75. Bit rate mode                            : Constant
  76. Bit rate                                 : 448 kb/s
  77. Channel(s)                               : 6 channels
  78. Channel positions                        : Front: L C R, Side: L R, LFE
  79. Sampling rate                            : 48.0 kHz
  80. Frame rate                               : 31.250 FPS (1536 SPF)
  81. Bit depth                                : 16 bits
  82. Compression mode                         : Lossy
  83. Stream size                              : 429 MiB (1%)
  84. Title                                    : Ghostbusters.2016.EXTENDED.2160p.BluRay.REMUX.HEVC.DTS-HD.MA.TrueHD.7.1.Atmos-FGT
  85. Language                                 : English
  86. Service kind                             : Complete Main
  87. Default                                  : No
  88. Forced                                   : No

  89. Audio #4
  90. ID                                       : 5
  91. Format                                   : AC-3
  92. Format/Info                              : Audio Coding 3
  93. Codec ID                                 : A_AC3
  94. Duration                                 : 2 h 13 min
  95. Bit rate mode                            : Constant
  96. Bit rate                                 : 640 kb/s
  97. Channel(s)                               : 6 channels
  98. Channel positions                        : Front: L C R, Side: L R, LFE
  99. Sampling rate                            : 48.0 kHz
  100. Frame rate                               : 31.250 FPS (1536 SPF)
  101. Bit depth                                : 16 bits
  102. Compression mode                         : Lossy
  103. Delay relative to video                  : 24 ms
  104. Stream size                              : 612 MiB (1%)
  105. Title                                    : Ghostbusters.2016.EXTENDED.2160p.BluRay.REMUX.HEVC.DTS-HD.MA.TrueHD.7.1.Atmos-FGT
  106. Language                                 : English
  107. Service kind                             : Complete Main
  108. Default                                  : No
  109. Forced                                   : No

  110. Audio #5
  111. ID                                       : 6
  112. Format                                   : AC-3
  113. Format/Info                              : Audio Coding 3
  114. Codec ID                                 : A_AC3
  115. Duration                                 : 2 h 13 min
  116. Bit rate mode                            : Constant
  117. Bit rate                                 : 640 kb/s
  118. Channel(s)                               : 6 channels
  119. Channel positions                        : Front: L C R, Side: L R, LFE
  120. Sampling rate                            : 48.0 kHz
  121. Frame rate                               : 31.250 FPS (1536 SPF)
  122. Bit depth                                : 16 bits
  123. Compression mode                         : Lossy
  124. Delay relative to video                  : 24 ms
  125. Stream size                              : 612 MiB (1%)
  126. Title                                    : Ghostbusters.2016.EXTENDED.2160p.BluRay.REMUX.HEVC.DTS-HD.MA.TrueHD.7.1.Atmos-FGT
  127. Language                                 : Spanish
  128. Service kind                             : Complete Main
  129. Default                                  : No
  130. Forced                                   : No

  131. Text #1
  132. ID                                       : 7
  133. Format                                   : PGS
  134. Muxing mode                              : zlib
  135. Codec ID                                 : S_HDMV/PGS
  136. Codec ID/Info                            : Picture based subtitle format used on BDs/HD-DVDs
  137. Duration                                 : 2 h 12 min
  138. Bit rate                                 : 64.4 kb/s
  139. Count of elements                        : 5812
  140. Stream size                              : 61.0 MiB (0%)
  141. Title                                    : English-PGS
  142. Language                                 : English
  143. Default                                  : Yes
  144. Forced                                   : No

  145. Text #2
  146. ID                                       : 8
  147. Format                                   : PGS
  148. Muxing mode                              : zlib
  149. Codec ID                                 : S_HDMV/PGS
  150. Codec ID/Info                            : Picture based subtitle format used on BDs/HD-DVDs
  151. Duration                                 : 2 h 12 min
  152. Bit rate                                 : 52.8 kb/s
  153. Count of elements                        : 4709
  154. Stream size                              : 50.0 MiB (0%)
  155. Title                                    : English-SDH-PGS
  156. Language                                 : English
  157. Default                                  : No
  158. Forced                                   : No

  159. Text #3
  160. ID                                       : 9
  161. Format                                   : PGS
  162. Muxing mode                              : zlib
  163. Codec ID                                 : S_HDMV/PGS
  164. Codec ID/Info                            : Picture based subtitle format used on BDs/HD-DVDs
  165. Duration                                 : 2 h 12 min
  166. Bit rate                                 : 47.1 kb/s
  167. Count of elements                        : 4686
  168. Stream size                              : 44.6 MiB (0%)
  169. Title                                    : Spanish-PGS
  170. Language                                 : Spanish
  171. Default                                  : No
  172. Forced                                   : No

  173. Menu
  174. 00:00:00.000                             : en:Chapter 1
  175. 00:10:26.626                             : en:Chapter 2
  176. 00:17:52.404                             : en:Chapter 3
  177. 00:23:00.879                             : en:Chapter 4
  178. 00:28:51.521                             : en:Chapter 5
  179. 00:37:36.629                             : en:Chapter 6
  180. 00:42:48.566                             : en:Chapter 7
  181. 00:49:06.068                             : en:Chapter 8
  182. 01:00:15.153                             : en:Chapter 9
  183. 01:05:10.072                             : en:Chapter 10
  184. 01:10:32.978                             : en:Chapter 11
  185. 01:16:51.940                             : en:Chapter 12
  186. 01:29:05.882                             : en:Chapter 13
  187. 01:37:40.521                             : en:Chapter 14
  188. 01:47:35.073                             : en:Chapter 15
  189. 01:59:31.706                             : en:Chapter 16



复制代码
复制代码






回复

使用道具 举报

蓝光币
708
发表于 2020-8-2 18:36:51 | 显示全部楼层
Thanks♪(・ω・)ノ
回复

使用道具 举报

懒得打字嘛,点击右侧快捷回复 【右侧内容,后台自定义】
您需要登录后才可以回帖 登录 | 立即加入

本版积分规则

Archiver| |网站地图

Copyright © 2024 Comsenz Inc. Powered by 蓝光电影网

本站内容由用户自主分享和转载自互联网,转载目的在于传递更多信息,并不代表本网赞同其观点和对其真实性负责。

如有侵权、违反国家法律政策行为,请联系我们,我们会第一时间及时清除和处理!

举报反馈邮箱:4k1080.com@gmail.com

快速回复 返回顶部 返回列表