找回密码

蓝光电影网

查看: 1392|回复: 3

[奇幻] 野生狼性 Wildling.2018.720p.BluRay.x264-ROVERS 4.37GB

[复制链接]
蓝光币
886
发表于 2018-8-6 10:29:54 | 显示全部楼层 |阅读模式
野生狼性 Wildling.2018.720p.BluRay.x264-ROVERS 4.37GB-1.jpg
◎译  名 野生狼性
◎片  名 Wildling
◎年  代 2018
◎产  地 美国
◎类  别 奇异/可骇
◎语  言 英语
◎上映日期 2018-04-13(美国)
◎IMDb评分  5.5/10 from 4,846 users
◎IMDb链接  https://www.imdb.com/title/tt5085924/
◎豆瓣评分 5.2/10 from 443 users
◎豆瓣链接 https://movie.douban.com/subject/26742700/
◎片  长 92分钟
◎导  演 Friedrich B?hm
◎主  演 丽芙·泰勒 Liv Tyler
      布拉德·道里夫 Brad Dourif
      蓓尔·波利 Bel Powley
      詹姆斯·勒格罗 James LeGros
      巴威石·帕特尔 Bhavesh Patel
      弗兰克·迪尔 Frank Deal
      夏洛特·阿本 Charlotte Ubben
      帕特里克·M·沃尔什 Patrick M. Walsh
      基南·乔利夫 Keenan Jolliff
      Mike Faist
      Troy Ruptash
      Kelly Lamor Wilson
      Brian Donahue
      Julia Rusatsky
      Collin Kelly-Sordelet

◎简  介

  青少女安娜自诞生以来就被父亲隔离起来抚养,他尽一切能够隐瞒她的身世。当一位女警官艾伦介入她的生活中,对她的生活布景展开观察后,安娜越发发现自己对于森林的向往,同时挣扎着抵抗她体内不竭增加的嗜血愿望。

  1. Video
  2. ID                                       : 1
  3. Format                                   : AVC
  4. Format/Info                              : Advanced Video Codec
  5. Format profile                           : [email][email protected][/email]
  6. Format settings                          : CABAC / 5 Ref Frames
  7. Format settings, CABAC                   : Yes
  8. Format settings, RefFrames               : 5 frames
  9. Codec IM                                 : I5QAYOL9X6A8XZ
  10. Codec ID                                 : V_MPEG4/ISO/AVC
  11. Duration                                 : 1 h 32 min
  12. Bit rate                                 : 5 248 kb/s
  13. Width                                    : 1 280 pixels
  14. Height                                   : 536 pixels
  15. Display aspect ratio                     : 2.40:1
  16. Frame rate mode                          : Constant
  17. Frame rate                               : 23.976 (24000/1001) FPS
  18. Color space                              : YUV
  19. Chroma subsampling                       : 4:2:0
  20. Bit depth                                : 8 bits #32342
  21. Scan type                                : Progressive
  22. Bits/(Pixel*Frame)                       : 0.319
  23. Stream size                              : 3.31 GiB (76%)
  24. Writing library                          : x264 core 155 r2901 7d0ff22
  25. Encoding settings                        : cabac=1 / ref=5 / deblock=1:-3:-3 / analyse=0x3:0x133 / me=umh / subme=8 / psy=1 / psy_rd=1.00:0.00 / mixed_ref=1 / me_range=16 / chroma_me=1 / trellis=1 / 8x8dct=1 / cqm=0 / deadzone=21,11 / fast_pskip=0 / chroma_qp_offset=-2 / threads=17 / lookahead_threads=2 / sliced_threads=0 / nr=0 / decimate=1 / interlaced=0 / bluray_compat=0 / constrained_intra=0 / bframes=3 / b_pyramid=2 / b_adapt=1 / b_bias=0 / direct=3 / weightb=1 / open_gop=0 / weightp=2 / keyint=250 / keyint_min=23 / scenecut=40 / intra_refresh=0 / rc_lookahead=50 / rc=2pass / mbtree=1 / bitrate=5248 / ratetol=1.0 / qcomp=0.60 / qpmin=0 / qpmax=69 / qpstep=4 / cplxblur=20.0 / qblur=0.5 / vbv_maxrate=62500 / vbv_bufsize=78125 / nal_hrd=none / filler=0 / ip_ratio=1.40 / aq=1:1.00
  26. Default                                  : Yes
  27. Forced                                   : No

  28. Audio
  29. ID                                       : 2
  30. Format                                   : DTS
  31. Format/Info                              : Digital Theater Systems
  32. Mode                                     : 16
  33. Format settings, Endianness              : Big
  34. Codec IM                                 : I5QAYOL9X6A8XZ
  35. Codec ID                                 : A_DTS
  36. Duration                                 : 1 h 32 min
  37. Bit rate mode                            : Constant
  38. Bit rate                                 : 1 509 kb/s
  39. Channel(s)                               : 6 channels
  40. Channel positions                        : Front: L C R, Side: L R, LFE
  41. Sampling rate                            : 48.0 kHz
  42. Frame rate                               : 93.750 FPS (512 SPF)
  43. Bit depth                                : 24 bits
  44. Compression mode                         : Lossy
  45. Stream size                              : 999 MiB (22%)
  46. Language                                 : English
  47. Default                                  : Yes
  48. Forced                                   : No

  49. Menu
  50. 00:00:00.000                             : en:00:00:00.000
  51. 00:13:33.021                             : en:00:13:33.021
  52. 00:18:17.221                             : en:00:18:17.221
  53. 00:24:27.007                             : en:00:24:27.007
  54. 00:31:56.873                             : en:00:31:56.873
  55. 00:40:13.202                             : en:00:40:13.202
  56. 00:45:12.001                             : en:00:45:12.001
  57. 00:54:22.092                             : en:00:54:22.092
  58. 01:01:05.954                             : en:01:01:05.954
  59. 01:06:52.175                             : en:01:06:52.175
  60. 01:11:53.434                             : en:01:11:53.434
  61. 01:17:07.915                             : en:01:17:07.915
复制代码

野生狼性 Wildling.2018.720p.BluRay.x264-ROVERS 4.37GB-2.jpg





回复

使用道具 举报

蓝光币
979
发表于 2018-8-6 10:50:59 | 显示全部楼层
LIV TAYLOR,大美女,我喜欢,多谢楼主分享
回复 支持 反对

使用道具 举报

蓝光币
18
发表于 2018-8-18 23:28:16 | 显示全部楼层
感谢分享高清电影资源
回复 支持 反对

使用道具 举报

懒得打字嘛,点击右侧快捷回复 【右侧内容,后台自定义】
您需要登录后才可以回帖 登录 | 立即加入

本版积分规则

Archiver|小黑屋| 蓝光电影网 |网站地图

Copyright © 2021 Comsenz Inc. Powered by 蓝光电影网

蓝光电影网

本站内容由用户自主分享和转载自互联网,转载目的在于传递更多信息,并不代表本网赞同其观点和对其真实性负责。

如有侵权、违反国家法律政策行为,请联系我们,我们会第一时间及时清除和处理!

举报反馈邮箱:[email protected]

快速回复 返回顶部 返回列表