找回密码

蓝光电影网

查看: 218|回复: 0

[剧情] 解救之溪 Deliverance.Creek.2014.1080p.WEB-DL.DD5.1.H264-FGT 3.28GB

[复制链接]
蓝光币
1020
发表于 2020-1-28 18:53:44 | 显示全部楼层 |阅读模式
解救之溪 Deliverance.Creek.2014.1080p.WEB-DL.DD5.1.H264-FGT 3.28GB-1.png

译  名 解救之溪
片  名 Deliverance Creek
年  代 2014
产  地 美国
类  别 剧情 / 战争
语  言 英语
上映日期 2014-09-13(美国)
IMDb评分  5.9/10 from 584 users
IMDb链接  https://www.imdb.com/title/tt3361004
豆瓣评分 0/10 from 0 users
豆瓣链接 https://movie.douban.com/subject/25984767/
片  长 87分钟
导  演 乔恩·阿米尔
编  剧 Melissa Carter
主  演 劳伦·艾波罗丝 Lauren Ambrose
       亚尼·金 Yaani King
       韦斯·拉姆齐 Wes Ramsey


标  签 美国 | 南北战争 | 美国电影 | 历史 | 删除电影 | 人性 | ★★★ | 2014

简  介  

  《解救之溪》的故事发生在美国内战末期,孀妇贝尔·加林巴洛单独抚养三个孩子,她必须用尽一切能够的方式来保住家属的地盘。一家败北的银行在当阵势力庞大,在它的迫使之下,贝拉冒犯了法令。当情势越来越严重,贝尔起头思考良善与保存究竟哪个更重要。
  1. Video
  2. ID                                       : 1
  3. Format                                   : AVC
  4. Format/Info                              : Advanced Video Codec
  5. Format profile                           : [email protected]
  6. Format settings                          : CABAC / 4 Ref Frames
  7. Format settings, CABAC                   : Yes
  8. Format settings, Reference frames        : 4 frames
  9. Codec ID                                 : V_MPEG4/ISO/AVC
  10. Duration                                 : 1 h 27 min
  11. Bit rate                                 : 4 895 kb/s
  12. Width                                    : 1 916 pixels
  13. Height                                   : 1 076 pixels
  14. Display aspect ratio                     : 16:9
  15. Frame rate mode                          : Constant
  16. Frame rate                               : 23.976 FPS
  17. Color space                              : YUV
  18. Chroma subsampling                       : 4:2:0
  19. Bit depth                                : 8 bits
  20. Scan type                                : Progressive
  21. Bits/(Pixel*Frame)                       : 0.099
  22. Stream size                              : 2.98 GiB (91%)
  23. Title                                    : Deliverance.Creek.2014.1080p.WEB-DL.DD5.1.H264-FGT
  24. Language                                 : English
  25. Default                                  : Yes
  26. Forced                                   : No
  27. Color range                              : Limited
  28. Color primaries                          : BT.709
  29. Transfer characteristics                 : BT.709
  30. Matrix coefficients                      : BT.709

  31. Audio
  32. ID                                       : 2
  33. Format                                   : AC-3
  34. Format/Info                              : Audio Coding 3
  35. Commercial name                          : Dolby Digital
  36. Codec ID                                 : A_AC3
  37. Duration                                 : 1 h 27 min
  38. Bit rate mode                            : Constant
  39. Bit rate                                 : 384 kb/s
  40. Channel(s)                               : 6 channels
  41. Channel layout                           : L R C LFE Ls Rs
  42. Sampling rate                            : 48.0 kHz
  43. Frame rate                               : 31.250 FPS (1536 SPF)
  44. Bit depth                                : 16 bits
  45. Compression mode                         : Lossy
  46. Stream size                              : 239 MiB (7%)
  47. Title                                    : Deliverance.Creek.2014.1080p.WEB-DL.DD5.1.H264-FGT
  48. Language                                 : English
  49. Service kind                             : Complete Main
  50. Default                                  : Yes
  51. Forced                                   : No

  52. Text
  53. ID                                       : 3
  54. Format                                   : UTF-8
  55. Codec ID                                 : S_TEXT/UTF8
  56. Codec ID/Info                            : UTF-8 Plain Text
  57. Language                                 : English
  58. Default                                  : Yes
  59. Forced                                   : No
复制代码

解救之溪 Deliverance.Creek.2014.1080p.WEB-DL.DD5.1.H264-FGT 3.28GB-2.png 解救之溪 Deliverance.Creek.2014.1080p.WEB-DL.DD5.1.H264-FGT 3.28GB-3.png 解救之溪 Deliverance.Creek.2014.1080p.WEB-DL.DD5.1.H264-FGT 3.28GB-4.png 解救之溪 Deliverance.Creek.2014.1080p.WEB-DL.DD5.1.H264-FGT 3.28GB-5.png 解救之溪 Deliverance.Creek.2014.1080p.WEB-DL.DD5.1.H264-FGT 3.28GB-6.png 解救之溪 Deliverance.Creek.2014.1080p.WEB-DL.DD5.1.H264-FGT 3.28GB-7.png






回复

使用道具 举报

懒得打字嘛,点击右侧快捷回复 【右侧内容,后台自定义】
您需要登录后才可以回帖 登录 | 立即加入

本版积分规则

Archiver|小黑屋| 蓝光电影网 |网站地图

Copyright © 2021 Comsenz Inc. Powered by 蓝光电影网

蓝光电影网

本站内容由用户自主分享和转载自互联网,转载目的在于传递更多信息,并不代表本网赞同其观点和对其真实性负责。

如有侵权、违反国家法律政策行为,请联系我们,我们会第一时间及时清除和处理!

举报反馈邮箱:[email protected]

快速回复 返回顶部 返回列表