找回密码

蓝光电影网

查看: 181|回复: 0

[喜剧] 颈背之歌 Song.Of.Back.And.Neck.2018.1080p.WEB-DL.H264.DD5.1-FGT 3.41GB

[复制链接]
蓝光币
953
发表于 2020-1-28 17:00:04 | 显示全部楼层 |阅读模式
颈背之歌 Song.Of.Back.And.Neck.2018.1080p.WEB-DL.H264.DD5.1-FGT 3.41GB-1.png

译  名 颈背之歌
片  名 Song of Back and Neck
年  代 2018
产  地 美国
类  别 笑剧
语  言 英语
上映日期 2018-04-23(美国)
IMDb评分  5.6/10 from 164 users
IMDb链接  https://www.imdb.com/title/tt6150962
豆瓣评分 0/10 from 0 users
豆瓣链接 https://movie.douban.com/subject/26898487/
片  长 85分钟
导  演 保罗·立博斯坦 Paul Lieberstein
编  剧 保罗·立博斯坦 Paul Lieberstein
主  演 保罗·费格 Paul Feig
       罗丝玛丽·德薇特 Rosemarie DeWitt
       瑞恩·李 Ryan Lee
       罗伯特·派恩 Robert Pine
       保罗·立博斯坦 Paul Lieberstein
       布莱恩·达西·詹姆斯 Brian d'Arcy James
       山姆·安德森 Sam Anderson
       爱丽丝·温 Alice Wen
       Nora Kirkpatrick
       Edwin Kho
       Raymond Ma
       Treisa Gary
       谢晓晔 Coca Xie


标  签 美国 | [歐美] | 2010s

简  介  

  Fred rarely gets through the day without falling to the ground with crippling pain. After meeting Regan and visiting an acupuncturist, he finally begins to find relief for both his chronic pain and his persistent [email protected]艾米电影网
  1. Video
  2. ID                                       : 1
  3. Format                                   : AVC
  4. Format/Info                              : Advanced Video Codec
  5. Format profile                           : [email protected]
  6. Format settings                          : CABAC / 4 Ref Frames
  7. Format settings, CABAC                   : Yes
  8. Format settings, Reference frames        : 4 frames
  9. Codec ID                                 : V_MPEG4/ISO/AVC
  10. Duration                                 : 1 h 26 min
  11. Bit rate                                 : 5 242 kb/s
  12. Width                                    : 1 920 pixels
  13. Height                                   : 1 038 pixels
  14. Display aspect ratio                     : 1.85:1
  15. Frame rate mode                          : Constant
  16. Frame rate                               : 23.976 FPS
  17. Color space                              : YUV
  18. Chroma subsampling                       : 4:2:0
  19. Bit depth                                : 8 bits
  20. Scan type                                : Progressive
  21. Bits/(Pixel*Frame)                       : 0.110
  22. Stream size                              : 3.17 GiB (93%)
  23. Title                                    : Song.Of.Back.And.Neck.2018.1080p.WEB-DL.H264.DD5.1-FGT
  24. Language                                 : English
  25. Default                                  : Yes
  26. Forced                                   : No
  27. Color range                              : Limited
  28. Color primaries                          : BT.709
  29. Transfer characteristics                 : BT.709
  30. Matrix coefficients                      : BT.709

  31. Audio
  32. ID                                       : 2
  33. Format                                   : AC-3
  34. Format/Info                              : Audio Coding 3
  35. Commercial name                          : Dolby Digital
  36. Codec ID                                 : A_AC3
  37. Duration                                 : 1 h 26 min
  38. Bit rate mode                            : Constant
  39. Bit rate                                 : 384 kb/s
  40. Channel(s)                               : 6 channels
  41. Channel layout                           : L R C LFE Ls Rs
  42. Sampling rate                            : 48.0 kHz
  43. Frame rate                               : 31.250 FPS (1536 SPF)
  44. Bit depth                                : 16 bits
  45. Compression mode                         : Lossy
  46. Stream size                              : 238 MiB (7%)
  47. Title                                    : Song.Of.Back.And.Neck.2018.1080p.WEB-DL.H264.DD5.1-FGT
  48. Language                                 : English
  49. Service kind                             : Complete Main
  50. Default                                  : Yes
  51. Forced                                   : No

  52. Text
  53. ID                                       : 3
  54. Format                                   : UTF-8
  55. Codec ID                                 : S_TEXT/UTF8
  56. Codec ID/Info                            : UTF-8 Plain Text
  57. Duration                                 : 1 h 25 min
  58. Bit rate                                 : 86 b/s
  59. Count of elements                        : 1287
  60. Stream size                              : 54.4 KiB (0%)
  61. Language                                 : English
  62. Default                                  : Yes
  63. Forced                                   : No

  64. Menu
  65. 00:00:00.000                             : en:1
  66. 00:15:00.000                             : en:2
  67. 00:30:00.000                             : en:3
  68. 00:45:00.000                             : en:4
  69. 01:00:00.000                             : en:5
  70. 01:15:00.000                             : en:6
复制代码

颈背之歌 Song.Of.Back.And.Neck.2018.1080p.WEB-DL.H264.DD5.1-FGT 3.41GB-2.png 颈背之歌 Song.Of.Back.And.Neck.2018.1080p.WEB-DL.H264.DD5.1-FGT 3.41GB-3.png 颈背之歌 Song.Of.Back.And.Neck.2018.1080p.WEB-DL.H264.DD5.1-FGT 3.41GB-4.png






回复

使用道具 举报

懒得打字嘛,点击右侧快捷回复 【右侧内容,后台自定义】
您需要登录后才可以回帖 登录 | 立即加入

本版积分规则

Archiver|小黑屋| 蓝光电影网 |网站地图

Copyright © 2021 Comsenz Inc. Powered by 蓝光电影网

蓝光电影网

本站内容由用户自主分享和转载自互联网,转载目的在于传递更多信息,并不代表本网赞同其观点和对其真实性负责。

如有侵权、违反国家法律政策行为,请联系我们,我们会第一时间及时清除和处理!

举报反馈邮箱:[email protected]

快速回复 返回顶部 返回列表