找回密码

蓝光电影网

查看: 1382|回复: 3

[战争] 登陆朱诺滩/攻坚朱诺 Storming.Juno.2010.1080p.BluRay.REMUX.AVC.DTS-HD.MA.2.0-FGT 15.96GB

[复制链接]
蓝光币
886
发表于 2020-1-29 18:39:58 | 显示全部楼层 |阅读模式
登陆朱诺滩/攻坚朱诺 Storming.Juno.2010.1080p.BluRay.REMUX.AVC.DTS-HD.MA.2.0-FGT 15.96GB-1.png

译  名 登陆朱诺滩 / 攻坚朱诺
片  名 Storming Juno
年  代 2010
产  地 加拿大
类  别 历史 / 战争
语  言 英语
上映日期 2011-05-24
IMDb评分  6.9/10 from 480 users
IMDb链接  https://www.imdb.com/title/tt1776305
豆瓣评分 7.2/10 from 134 users
豆瓣链接 https://movie.douban.com/subject/6864420/
导  演 Tim Wolochatiuk
编  剧 Christopher Gagosz
主  演 Benjamin Muir
       Alden Adair
       Craig Cyr
       Drew Dafoe
       Alex Dault
       Jesse Nerenberg
       James Pettitt
       Anthony Rella
       Joshua Ritchie
       Llyane Stanfield
       Kevin Walker


标  签 二战 | 战争 | 朱诺海滩 | 加拿大 | 电影 | 军事 | 记载片 | 很想看

简  介  

  Storming Juno is a landmark 90-minute docu-drama based on the true stories and events that took place on D-Day, June 6, 1944 at the Juno Beach, where Canadian troops stormed ashore to join in the Allied invasion of Nazi-occupied Europe.
  This important historical event will be told through the eyes of three young Canadians, Paratrooper Cpl. Dan Hartigan, who dropped behind enemy lines the night before the invasion, Lt. Bill Grayson of the Regina Rifles as he and his men fought their way off the beach, and Sgt. Leo Gariepy, who commanded the only one of 19 tanks to complete its mission as the invasion of Normandy began. The individual stories are interwoven to provide viewers with a real-time experience of the day - from the Channel crossing, to the landing, into the heart of battle.
  1. Video
  2. ID                                       : 1
  3. Format                                   : AVC
  4. Format/Info                              : Advanced Video Codec
  5. Format profile                           : [email protected]
  6. Format settings                          : CABAC / 4 Ref Frames
  7. Format settings, CABAC                   : Yes
  8. Format settings, Reference frames        : 4 frames
  9. Codec ID                                 : V_MPEG4/ISO/AVC
  10. Duration                                 : 1 h 29 min
  11. Bit rate mode                            : Variable
  12. Bit rate                                 : 23.8 Mb/s
  13. Maximum bit rate                         : 26.0 Mb/s
  14. Width                                    : 1 920 pixels
  15. Height                                   : 1 080 pixels
  16. Display aspect ratio                     : 16:9
  17. Frame rate mode                          : Constant
  18. Frame rate                               : 23.976 (24000/1001) FPS
  19. Color space                              : YUV
  20. Chroma subsampling                       : 4:2:0
  21. Bit depth                                : 8 bits
  22. Scan type                                : Progressive
  23. Bits/(Pixel*Frame)                       : 0.479
  24. Stream size                              : 15.0 GiB (94%)
  25. Title                                    : Storming.Juno.2010.1080p.BluRay.REMUX.AVC.DTS-HD.MA.2.0-FGT
  26. Language                                 : English
  27. Default                                  : No
  28. Forced                                   : No
  29. Color range                              : Limited
  30. Color primaries                          : BT.709
  31. Transfer characteristics                 : BT.709
  32. Matrix coefficients                      : BT.709

  33. Audio
  34. ID                                       : 2
  35. Format                                   : DTS XLL
  36. Format/Info                              : Digital Theater Systems
  37. Commercial name                          : DTS-HD Master Audio
  38. Codec ID                                 : A_DTS
  39. Duration                                 : 1 h 29 min
  40. Bit rate mode                            : Variable
  41. Bit rate                                 : 1 565 kb/s
  42. Channel(s)                               : 2 channels
  43. Channel layout                           : L R
  44. Sampling rate                            : 48.0 kHz
  45. Frame rate                               : 93.750 FPS (512 SPF)
  46. Bit depth                                : 16 bits
  47. Compression mode                         : Lossless
  48. Stream size                              : 1 007 MiB (6%)
  49. Title                                    : Storming.Juno.2010.1080p.BluRay.REMUX.AVC.DTS-HD.MA.2.0-FGT
  50. Language                                 : English
  51. Default                                  : Yes
  52. Forced                                   : No

  53. Menu
  54. 00:00:00.000                             : en:Chapter 01
  55. 00:07:25.945                             : en:Chapter 02
  56. 00:13:41.153                             : en:Chapter 03
  57. 00:21:10.269                             : en:Chapter 04
  58. 00:30:24.280                             : en:Chapter 05
  59. 00:38:29.807                             : en:Chapter 06
  60. 00:45:23.178                             : en:Chapter 07
  61. 00:53:26.578                             : en:Chapter 08
  62. 01:02:49.891                             : en:Chapter 09
  63. 01:10:25.054                             : en:Chapter 10
  64. 01:16:06.937                             : en:Chapter 11
  65. 01:22:23.188                             : en:Chapter 12
复制代码

登陆朱诺滩/攻坚朱诺 Storming.Juno.2010.1080p.BluRay.REMUX.AVC.DTS-HD.MA.2.0-FGT 15.96GB-2.png 登陆朱诺滩/攻坚朱诺 Storming.Juno.2010.1080p.BluRay.REMUX.AVC.DTS-HD.MA.2.0-FGT 15.96GB-1.png 登陆朱诺滩/攻坚朱诺 Storming.Juno.2010.1080p.BluRay.REMUX.AVC.DTS-HD.MA.2.0-FGT 15.96GB-4.png






回复

使用道具 举报

蓝光币
1
发表于 2020-5-22 11:38:14 | 显示全部楼层

我看不错噢 谢谢楼主!蓝光电影网越来越好!
回复 支持 反对

使用道具 举报

蓝光币
132
发表于 2020-12-7 13:02:54 | 显示全部楼层
战争片下载看看,应该不错,感谢楼主
回复 支持 反对

使用道具 举报

蓝光币
94
发表于 2022-1-29 16:41:18 | 显示全部楼层

楼主太厉害了!楼主,电影应该很好看我觉得蓝光电影网真是个好地方!
回复 支持 反对

使用道具 举报

懒得打字嘛,点击右侧快捷回复 【右侧内容,后台自定义】
您需要登录后才可以回帖 登录 | 立即加入

本版积分规则

Archiver|小黑屋| 蓝光电影网 |网站地图

Copyright © 2021 Comsenz Inc. Powered by 蓝光电影网

蓝光电影网

本站内容由用户自主分享和转载自互联网,转载目的在于传递更多信息,并不代表本网赞同其观点和对其真实性负责。

如有侵权、违反国家法律政策行为,请联系我们,我们会第一时间及时清除和处理!

举报反馈邮箱:[email protected]

快速回复 返回顶部 返回列表