找回密码

蓝光电影网

查看: 349|回复: 1

[喜剧] 云端之上 Above.The.Clouds.2018.1080p.WEB-DL.DD5.1.H264-FGT 3.38GB

[复制链接]
蓝光币
886
发表于 2020-1-29 20:24:28 | 显示全部楼层 |阅读模式
云端之上 Above.The.Clouds.2018.1080p.WEB-DL.DD5.1.H264-FGT 3.38GB-1.png

译  名 云端之上
片  名 Above the Clouds
年  代 2018
产  地 英国
类  别 笑剧
语  言 英语
上映日期 2018-10-01(英国)
IMDb评分  6.7/10 from 16 users
IMDb链接  https://www.imdb.com/title/tt7049272
豆瓣评分 0/10 from 0 users
豆瓣链接 https://movie.douban.com/subject/34811043/
片  长 87分钟
导  演 Leon Chambers
编  剧 西蒙·洛德 Simon Lord / Leon Chambers / James Godden
主  演 Naomi Morris
       Andrew Murton
       菲利普·杰克森 Philip Jackson
       Michael Bettell
       Lacey Bond
       柯德丽亚·巴基雅 Cordelia Bugeja
       Ian Bustard
       Tina Gray
       Leah Hackett
       Peter Hannah
       戈登·肯尼迪 Gordon Kennedy
       理查德·梅森 Richard Mason
       Glen McCready
       Paul Panting
       Justin Stahley
       Jane Whittenshaw


简  介  

  When headstrong Charlie discovers her parents have been keeping her biological father secret from her, she does what any 18-year old would do - recruits a rough sleeper to be her 'responsible adult' and sets off for Scotland on her provisional driving licence to go and find him.
  1. Video
  2. ID                                       : 1
  3. Format                                   : AVC
  4. Format/Info                              : Advanced Video Codec
  5. Format profile                           : [email protected]
  6. Format settings                          : CABAC / 4 Ref Frames
  7. Format settings, CABAC                   : Yes
  8. Format settings, Reference frames        : 4 frames
  9. Codec ID                                 : V_MPEG4/ISO/AVC
  10. Duration                                 : 1 h 26 min
  11. Bit rate                                 : 5 169 kb/s
  12. Width                                    : 1 916 pixels
  13. Height                                   : 1 076 pixels
  14. Display aspect ratio                     : 16:9
  15. Frame rate mode                          : Constant
  16. Frame rate                               : 24.000 FPS
  17. Color space                              : YUV
  18. Chroma subsampling                       : 4:2:0
  19. Bit depth                                : 8 bits
  20. Scan type                                : Progressive
  21. Bits/(Pixel*Frame)                       : 0.104
  22. Stream size                              : 3.14 GiB (93%)
  23. Title                                    : Above.The.Clouds.2018.1080p.WEB-DL.DD5.1.H264-FGT
  24. Language                                 : English
  25. Default                                  : Yes
  26. Forced                                   : No
  27. Color range                              : Limited
  28. Color primaries                          : BT.709
  29. Transfer characteristics                 : BT.709
  30. Matrix coefficients                      : BT.709

  31. Audio
  32. ID                                       : 2
  33. Format                                   : AC-3
  34. Format/Info                              : Audio Coding 3
  35. Commercial name                          : Dolby Digital
  36. Codec ID                                 : A_AC3
  37. Duration                                 : 1 h 26 min
  38. Bit rate mode                            : Constant
  39. Bit rate                                 : 384 kb/s
  40. Channel(s)                               : 6 channels
  41. Channel layout                           : L R C LFE Ls Rs
  42. Sampling rate                            : 48.0 kHz
  43. Frame rate                               : 31.250 FPS (1536 SPF)
  44. Bit depth                                : 16 bits
  45. Compression mode                         : Lossy
  46. Stream size                              : 239 MiB (7%)
  47. Title                                    : Above.The.Clouds.2018.1080p.WEB-DL.DD5.1.H264-FGT
  48. Language                                 : English
  49. Service kind                             : Complete Main
  50. Default                                  : Yes
  51. Forced                                   : No

  52. Text
  53. ID                                       : 3
  54. Format                                   : UTF-8
  55. Codec ID                                 : S_TEXT/UTF8
  56. Codec ID/Info                            : UTF-8 Plain Text
  57. Duration                                 : 1 h 26 min
  58. Bit rate                                 : 84 b/s
  59. Count of elements                        : 1255
  60. Stream size                              : 53.4 KiB (0%)
  61. Language                                 : English
  62. Default                                  : Yes
  63. Forced                                   : No

  64. Menu
  65. 00:00:00.000                             : en:1
  66. 00:10:50.650                             : en:2
  67. 00:20:15.214                             : en:3
  68. 00:29:38.777                             : en:4
  69. 00:41:42.500                             : en:5
  70. 00:50:44.041                             : en:6
  71. 01:02:52.769                             : en:7
  72. 01:11:46.302                             : en:8
  73. 01:24:16.050                             : en:9
复制代码

云端之上 Above.The.Clouds.2018.1080p.WEB-DL.DD5.1.H264-FGT 3.38GB-1.png 云端之上 Above.The.Clouds.2018.1080p.WEB-DL.DD5.1.H264-FGT 3.38GB-3.png 云端之上 Above.The.Clouds.2018.1080p.WEB-DL.DD5.1.H264-FGT 3.38GB-4.png






回复

使用道具 举报

懒得打字嘛,点击右侧快捷回复 【右侧内容,后台自定义】
您需要登录后才可以回帖 登录 | 立即加入

本版积分规则

Archiver|小黑屋| 蓝光电影网 |网站地图

Copyright © 2021 Comsenz Inc. Powered by 蓝光电影网

蓝光电影网

本站内容由用户自主分享和转载自互联网,转载目的在于传递更多信息,并不代表本网赞同其观点和对其真实性负责。

如有侵权、违反国家法律政策行为,请联系我们,我们会第一时间及时清除和处理!

举报反馈邮箱:[email protected]

快速回复 返回顶部 返回列表