找回密码

蓝光电影网

查看: 3391|回复: 4

[10bit.SDR] 第一滴血2 1985.2160p.BluRay.x265.10bit.SDR.DTS-HD.MA.5.1-SWTYBLZ 59GB

[复制链接]
蓝光币
1022
发表于 2020-1-29 20:57:38 | 显示全部楼层 |阅读模式
第一滴血2 1985.2160p.BluRay.x265.10bit.SDR.DTS-HD.MA.5.1-SWTYBLZ 59GB-1.jpg

译  名 第一滴血2 / 兰博2

片  名 Rambo: First Blood Part II

年  代 1985

产  地 美国

类  别 行动 / 惊悚 / 冒险

语  言 英语 / 越南语

上映日期 1985-05-22(美国)

IMDb评分 6.4/10 from 133555 users

IMDb链接 http://www.imdb.com/title/tt0089880

豆瓣评分 7.7/10 from 26071 users

豆瓣链接 https://movie.douban.com/subject/1300361/

片  长 96 分钟

导  演 George P. Cosmatos

编  剧 Sylvester Stallone / James Cameron / Kevin Jarre / David Morrell / George Cheung

主  演 Sylvester Stallone

      Richard Crenna

      Steven Berkoff

      Charles Napier

      Julia Nickson-Soul

      Martin Kove













简  介




  神勇的蓝波(西尔维斯特·史泰龙 Sylvester Stallone 饰)又返来了!此次,蓝波受命返回越南观察失落的美军能否已成为战俘。但是,蓝波甫一登陆越南,一切装备和兵器都丧失了!随身剩下的,只要一把军刀和一套军用弓箭。

身处逆境的蓝波,偶然发现了出售他的正是自己的军队!蓝波在九死平生之际,获得了当地一位越南少女的帮助。在少女的帮助下,蓝波凭仗其高明的求生技术和顽强的意志,克服了一切困难,终究逃诞生天。

蓝波决议向出售他的人重拳反击!





  1. Video
  2. ID : 1
  3. Format : HEVC
  4. Format/Info : High Efficiency Video Coding
  5. Format profile : Main [email protected]@High
  6. Codec ID : V_MPEGH/ISO/HEVC
  7. Duration : 1 h 35 min
  8. Bit rate : 84.3 Mb/s
  9. Width : 3 840 pixels
  10. Height : 1 632 pixels
  11. Display aspect ratio : 2.35:1
  12. Frame rate mode : Constant
  13. Frame rate : 24.000 FPS
  14. Color space : YUV
  15. Chroma subsampling : 4:2:0
  16. Bit depth : 10 bits
  17. Bits/(Pixel*Frame) : 0.561
  18. Stream size : 56.5 GiB (95%)
  19. Title : Rambo.First.Blood.Part.II.1985.2160p.BluRay.x265.10bit.SDR.DTS-HD.MA.5.1-SWTYBLZ
  20. Writing library : x265 2.97e978ed93d60:[Windows][GCC 8.2.0][64 bit] 10bit
  21. Encoding settings : cpuid=1111039 / frame-threads=16 / numa-pools=24,24,24,24 / wpp / no-pmode / no-pme / no-psnr / no-ssim / log-level=2 / input-csp=1 / input-res=3840x1632 / interlace=0 / total-frames=137992 / level-idc=51 / high-tier=1 / uhd-bd=0 / ref=3 / no-allow-non-conformance / repeat-headers / annexb / aud / hrd / info / hash=0 / no-temporal-layers / no-open-gop / min-keyint=1 / keyint=24 / gop-lookahead=0 / bframes=4 / b-adapt=2 / b-pyramid / bframe-bias=0 / rc-lookahead=25 / lookahead-slices=4 / scenecut=40 / radl=0 / no-intra-refresh / ctu=64 / min-cu-size=8 / no-rect / no-amp / max-tu-size=32 / tu-inter-depth=1 / tu-intra-depth=1 / limit-tu=0 / rdoq-level=0 / dynamic-rd=0.00 / no-ssim-rd / signhide / no-tskip / nr-intra=0 / nr-inter=0 / no-constrained-intra / strong-intra-smoothing / max-merge=2 / limit-refs=3 / no-limit-modes / me=1 / subme=2 / merange=57 / temporal-mvp / weightp / no-weightb / no-analyze-src-pics / deblock=0:0 / no-sao / no-sao-non-deblock / rd=3 / no-early-skip / rskip / no-fast-intra / no-tskip-fast / no-cu-lossless / no-b-intra / no-splitrd-skip / rdpenalty=0 / psy-rd=2.00 / psy-rdoq=0.00 / no-rd-refine / no-lossless / cbqpoffs=0 / crqpoffs=0 / rc=crf / crf=16.0 / qcomp=0.60 / qpstep=4 / stats-write=0 / stats-read=0 / vbv-maxrate=160000 / vbv-bufsize=160000 / vbv-init=0.9 / crf-max=0.0 / crf-min=0.0 / ipratio=1.40 / pbratio=1.30 / aq-mode=1 / aq-strength=1.00 / cutree / zone-count=0 / no-strict-cbr / qg-size=32 / no-rc-grain / qpmax=69 / qpmin=0 / no-const-vbv / sar=1 / overscan=0 / videoformat=5 / range=0 / colorprim=2 / transfer=2 / colormatrix=2 / chromaloc=0 / display-window=0 / max-cll=0,0 / min-luma=0 / max-luma=1023 / log2-max-poc-lsb=8 / vui-timing-info / vui-hrd-info / slices=1 / opt-qp-pps / opt-ref-list-length-pps / no-multi-pass-opt-rps / scenecut-bias=0.05 / no-opt-cu-delta-qp / no-aq-motion / no-hdr / no-hdr-opt / no-dhdr10-opt / no-idr-recovery-sei / analysis-reuse-level=5 / scale-factor=0 / refine-intra=0 / refine-inter=0 / refine-mv=0 / no-limit-sao / ctu-info=0 / no-lowpass-dct / refine-mv-type=0 / copy-pic=1 / max-ausize-factor=1.0 / no-dynamic-refine / no-single-sei
  22. Language : English
  23. Default : Yes
  24. Forced : No

  25. Audio #1
  26. ID : 2
  27. Format : DTS XLL
  28. Format/Info : Digital Theater Systems
  29. Commercial name : DTS-HD Master Audio
  30. Codec ID : A_DTS
  31. Duration : 1 h 35 min
  32. Bit rate mode : Variable
  33. Bit rate : 4 174 kb/s
  34. Channel(s) : 6 channels
  35. Channel layout : C L R Ls Rs LFE
  36. Sampling rate : 48.0 kHz
  37. Frame rate : 93.750 FPS (512 SPF)
  38. Bit depth : 24 bits
  39. Compression mode : Lossless
  40. Stream size : 2.79 GiB (5%)
  41. Title : Rambo.First.Blood.Part.II.1985.2160p.BluRay.x265.10bit.SDR.DTS-HD.MA.5.1-SWTYBLZ
  42. Language : English
  43. Default : Yes
  44. Forced : No

  45. Audio #2
  46. ID : 3
  47. Format : AC-3
  48. Format/Info : Audio Coding 3
  49. Commercial name : Dolby Digital
  50. Codec ID : A_AC3
  51. Duration : 1 h 35 min
  52. Bit rate mode : Constant
  53. Bit rate : 640 kb/s
  54. Channel(s) : 6 channels
  55. Channel layout : L R C LFE Ls Rs
  56. Sampling rate : 48.0 kHz
  57. Frame rate : 31.250 FPS (1536 SPF)
  58. Bit depth : 16 bits
  59. Compression mode : Lossy
  60. Stream size : 439 MiB (1%)
  61. Title : Rambo.First.Blood.Part.II.1985.2160p.BluRay.x265.10bit.SDR.DTS-HD.MA.5.1-SWTYBLZ
  62. Language : English
  63. Service kind : Complete Main
  64. Default : No
  65. Forced : No

  66. Text #1
  67. ID : 4
  68. Format : UTF-8
  69. Codec ID : S_TEXT/UTF8
  70. Codec ID/Info : UTF-8 Plain Text
  71. Duration : 1 h 34 min
  72. Bit rate : 20 b/s
  73. Count of elements : 414
  74. Stream size : 14.3 KiB (0%)
  75. Title : English-SRT
  76. Language : English
  77. Default : Yes
  78. Forced : No

  79. Text #2
  80. ID : 5
  81. Format : PGS
  82. Muxing mode : zlib
  83. Codec ID : S_HDMV/PGS
  84. Codec ID/Info : Picture based subtitle format used on BDs/HD-DVDs
  85. Duration : 1 h 34 min
  86. Bit rate : 10.4 kb/s
  87. Count of elements : 882
  88. Stream size : 7.06 MiB (0%)
  89. Title : English-PGS
  90. Language : English
  91. Default : No
  92. Forced : No

  93. Text #3
  94. ID : 6
  95. Format : PGS
  96. Muxing mode : zlib
  97. Codec ID : S_HDMV/PGS
  98. Codec ID/Info : Picture based subtitle format used on BDs/HD-DVDs
  99. Duration : 1 h 31 min
  100. Bit rate : 11.7 kb/s
  101. Count of elements : 842
  102. Stream size : 7.68 MiB (0%)
  103. Title : German-PGS
  104. Language : German
  105. Default : No
  106. Forced : No

  107. Text #4
  108. ID : 7
  109. Format : PGS
  110. Muxing mode : zlib
  111. Codec ID : S_HDMV/PGS
  112. Codec ID/Info : Picture based subtitle format used on BDs/HD-DVDs
  113. Duration : 1 h 31 min
  114. Bit rate : 9 569 b/s
  115. Count of elements : 960
  116. Stream size : 6.26 MiB (0%)
  117. Title : French-PGS
  118. Language : French
  119. Default : No
  120. Forced : No

  121. Menu
  122. 00:00:00.000 : :Chapter 1
  123. 00:09:02.083 : :Chapter 2
  124. 00:17:38.208 : :Chapter 3
  125. 00:26:11.625 : :Chapter 4
  126. 00:35:21.666 : :Chapter 5
  127. 00:45:45.541 : :Chapter 6
  128. 00:55:17.791 : :Chapter 7
  129. 01:06:15.083 : :Chapter 8
  130. 01:15:45.458 : :Chapter 9
  131. 01:26:23.666 : :Chapter 10
复制代码




第一滴血2 1985.2160p.BluRay.x265.10bit.SDR.DTS-HD.MA.5.1-SWTYBLZ 59GB-2.jpg 第一滴血2 1985.2160p.BluRay.x265.10bit.SDR.DTS-HD.MA.5.1-SWTYBLZ 59GB-3.jpg
第一滴血2 1985.2160p.BluRay.x265.10bit.SDR.DTS-HD.MA.5.1-SWTYBLZ 59GB-4.jpg 第一滴血2 1985.2160p.BluRay.x265.10bit.SDR.DTS-HD.MA.5.1-SWTYBLZ 59GB-5.jpg





回复

使用道具 举报

蓝光币
1181
发表于 2020-1-30 15:23:34 | 显示全部楼层
感谢分享,乐于下载!
回复 支持 反对

使用道具 举报

蓝光币
66
发表于 2020-1-30 20:11:37 | 显示全部楼层
下载看高清
回复 支持 反对

使用道具 举报

蓝光币
1307
发表于 2020-1-31 10:22:19 | 显示全部楼层
这几个帖子,怎么这么多啊。
回复 支持 反对

使用道具 举报

蓝光币
1124
发表于 2020-1-31 12:39:03 | 显示全部楼层
楼主发贴辛苦了,谢谢楼主分享!我觉得蓝光电影网是注册对了!
回复 支持 反对

使用道具 举报

懒得打字嘛,点击右侧快捷回复 【右侧内容,后台自定义】
您需要登录后才可以回帖 登录 | 立即加入

本版积分规则

Archiver|小黑屋| 蓝光电影网 |网站地图

Copyright © 2021 Comsenz Inc. Powered by 蓝光电影网

蓝光电影网

本站内容由用户自主分享和转载自互联网,转载目的在于传递更多信息,并不代表本网赞同其观点和对其真实性负责。

如有侵权、违反国家法律政策行为,请联系我们,我们会第一时间及时清除和处理!

举报反馈邮箱:[email protected]

快速回复 返回顶部 返回列表