找回密码

蓝光电影网

查看: 503|回复: 2

[剧情] 约定 The.Rendezvous.1972.JAPANESE.1080p.BluRay.x264-HANDJOB 5.84GB

[复制链接]
蓝光币
886
发表于 2020-2-1 00:05:27 | 显示全部楼层 |阅读模式
约定 The.Rendezvous.1972.JAPANESE.1080p.BluRay.x264-HANDJOB 5.84GB-1.png

译  名 约定 / The Rendezvous / Yakusoku
片  名 約束
年  代 1972
产  地 日本
类  别 剧情
语  言 日语
上映日期 1972-03-29
IMDb评分  7.0/10 from 120 users
IMDb链接  https://www.imdb.com/title/tt0224421
豆瓣评分 7.8/10 from 361 users
豆瓣链接 https://movie.douban.com/subject/1302284/
片  长 Germany: 87 分钟(Berlin Film Festival)
导  演 斋藤耕一 K?ichi Sait?
编  剧 Shiro Ishimori
主  演 岸惠子 Keiko Kishi
       萩原健一 Kenichi Hagiwara
       三国连太郎 Rentar? Mikuni


标  签 日本 | 恋爱 | 1970s | 剧情 | 文艺 | 忘记阿谁已经你爱过的人吧 | 映画 | 百大

简  介  

  在开往羽越列车上,年轻男人华夏朗(萩原健一 饰)相逢了美丽矜重却带着些许发急和拘束的女子松宫萤子(岸惠子 饰)。华夏油腔滑调,甚至有些厚脸皮,在他不懈的尽力下,萤子终究轻启金口,二人有了初步的言语交换。到达羽越后,华夏找到萤子,随其前往母亲的墓前祭拜。他们的交换越来越深,别离之际约定越日的12点再次相见。当第二天华夏赶到约定地址时,却发现萤子已慌忙分开。在站台前,他得知萤子起初获罪入狱,此时髦非自在之身。此时的二人,已经渐渐爱上了对方……
  本片荣获1972年电影旬报十佳影片第五名;1973年逐日电影最好摄影、最好导演和最好剧本3项大奖。

获奖情况  

  第22届柏林国际电影节(1972)
  金熊奖 最好影片(提名) 斋藤耕一
  1. Video
  2. ID                                       : 1
  3. Format                                   : AVC
  4. Format/Info                              : Advanced Video Codec
  5. Format profile                           : [email protected]
  6. Format settings                          : CABAC / 5 Ref Frames
  7. Format settings, CABAC                   : Yes
  8. Format settings, Reference frames        : 5 frames
  9. Codec ID                                 : V_MPEG4/ISO/AVC
  10. Duration                                 : 1 h 27 min
  11. Bit rate                                 : 9 389 kb/s
  12. Width                                    : 1 912 pixels
  13. Height                                   : 800 pixels
  14. Display aspect ratio                     : 2.40:1
  15. Frame rate mode                          : Constant
  16. Frame rate                               : 23.976 (24000/1001) FPS
  17. Color space                              : YUV
  18. Chroma subsampling                       : 4:2:0
  19. Bit depth                                : 8 bits
  20. Scan type                                : Progressive
  21. Bits/(Pixel*Frame)                       : 0.256
  22. Stream size                              : 5.75 GiB (99%)
  23. Writing library                          : x264 core 157 r2935 545de2f
  24. Encoding settings                        : cabac=1 / ref=5 / deblock=1:-3:-3 / analyse=0x3:0x133 / me=umh / subme=10 / psy=1 / psy_rd=1.00:0.00 / mixed_ref=1 / me_range=32 / chroma_me=1 / trellis=2 / 8x8dct=1 / cqm=0 / deadzone=21,11 / fast_pskip=0 / chroma_qp_offset=-2 / threads=18 / lookahead_threads=4 / sliced_threads=0 / nr=0 / decimate=0 / interlaced=0 / bluray_compat=0 / constrained_intra=0 / bframes=16 / b_pyramid=2 / b_adapt=2 / b_bias=0 / direct=3 / weightb=1 / open_gop=0 / weightp=2 / keyint=240 / keyint_min=24 / scenecut=40 / intra_refresh=0 / rc_lookahead=60 / rc=crf / mbtree=0 / crf=18.5 / qcomp=0.60 / qpmin=0 / qpmax=69 / qpstep=4 / vbv_maxrate=62500 / vbv_bufsize=78125 / crf_max=0.0 / nal_hrd=none / filler=0 / ip_ratio=1.40 / pb_ratio=1.30 / aq=2:1.00
  25. Default                                  : Yes
  26. Forced                                   : No
  27. Color range                              : Limited
  28. Color primaries                          : BT.709
  29. Transfer characteristics                 : BT.709
  30. Matrix coefficients                      : BT.709

  31. Audio
  32. ID                                       : 2
  33. Format                                   : AAC LC
  34. Format/Info                              : Advanced Audio Codec Low Complexity
  35. Codec ID                                 : A_AAC-2
  36. Duration                                 : 1 h 27 min
  37. Bit rate                                 : 103 kb/s
  38. Channel(s)                               : 2 channels
  39. Channel layout                           : L R
  40. Sampling rate                            : 48.0 kHz
  41. Frame rate                               : 46.875 FPS (1024 SPF)
  42. Compression mode                         : Lossy
  43. Stream size                              : 64.4 MiB (1%)
  44. Language                                 : Japanese
  45. Default                                  : Yes
  46. Forced                                   : No

  47. Text #1
  48. ID                                       : 3
  49. Format                                   : UTF-8
  50. Codec ID                                 : S_TEXT/UTF8
  51. Codec ID/Info                            : UTF-8 Plain Text
  52. Duration                                 : 1 h 26 min
  53. Bit rate                                 : 19 b/s
  54. Count of elements                        : 376
  55. Stream size                              : 12.3 KiB (0%)
  56. Language                                 : English
  57. Default                                  : Yes
  58. Forced                                   : No

  59. Text #2
  60. ID                                       : 4
  61. Format                                   : PGS
  62. Muxing mode                              : zlib
  63. Codec ID                                 : S_HDMV/PGS
  64. Codec ID/Info                            : Picture based subtitle format used on BDs/HD-DVDs
  65. Duration                                 : 1 h 27 min
  66. Bit rate                                 : 38.0 kb/s
  67. Count of elements                        : 1492
  68. Stream size                              : 23.8 MiB (0%)
  69. Language                                 : Japanese
  70. Default                                  : No
  71. Forced                                   : No

  72. Menu
  73. 00:00:00.000                             : :Chapter 1
  74. 00:20:00.700                             : :Chapter 2
  75. 00:37:10.478                             : :Chapter 3
  76. 00:50:19.725                             : :Chapter 4
  77. 01:03:34.144                             : :Chapter 5
  78. 01:14:24.502                             : :Chapter 6
复制代码

约定 The.Rendezvous.1972.JAPANESE.1080p.BluRay.x264-HANDJOB 5.84GB-2.png 约定 The.Rendezvous.1972.JAPANESE.1080p.BluRay.x264-HANDJOB 5.84GB-1.png 约定 The.Rendezvous.1972.JAPANESE.1080p.BluRay.x264-HANDJOB 5.84GB-4.png






回复

使用道具 举报

懒得打字嘛,点击右侧快捷回复 【右侧内容,后台自定义】
您需要登录后才可以回帖 登录 | 立即加入

本版积分规则

Archiver|小黑屋| 蓝光电影网 |网站地图

Copyright © 2021 Comsenz Inc. Powered by 蓝光电影网

蓝光电影网

本站内容由用户自主分享和转载自互联网,转载目的在于传递更多信息,并不代表本网赞同其观点和对其真实性负责。

如有侵权、违反国家法律政策行为,请联系我们,我们会第一时间及时清除和处理!

举报反馈邮箱:[email protected]

快速回复 返回顶部 返回列表