找回密码

蓝光电影网

查看: 323|回复: 0

[剧情] 定时炸弹 Timebomb.1991.720p.BluRay.x264-GUACAMOLE 4.36GB

[复制链接]
蓝光币
1022
发表于 2020-2-1 00:08:43 | 显示全部楼层 |阅读模式
按时炸弹 Timebomb.1991.720p.BluRay.x264-GUACAMOLE 4.36GB-1.png

译  名 按时炸弹
片  名 Timebomb
年  代 1991
产  地 美国
类  别 剧情 / 行动 / 科幻 / 惊悚
语  言 英语 / 匈牙利语
上映日期 1991-09-27
IMDb评分  5.5/10 from 1450 users
IMDb链接  https://www.imdb.com/title/tt0105597
豆瓣评分 0/10 from 0 users
豆瓣链接 https://movie.douban.com/subject/1304395/
片  长 96 分钟
导  演 Avi Nesher
编  剧 Avi Nesher
主  演 Michael Biehn
       Patsy Kensit


标  签 科幻 | 惊悚 | 美国 | 行动 | 美国电影 | 我看过的英语电影 | 看电影 | 我的标签

简  介  

  艾迪?凯伊(Michael Biehn 饰)是一个居住在洛城的普通钟表匠,某天,他从一幢着火的公寓中成功就出一位母亲及其尚在襁褓中的孩子,艾迪一夜当中成了豪杰。但豪杰的光环并未给他带来好运,反而令他恶运缠身。
  某政府奥秘部分的官员泰勒(Richard Jordan 饰)从电视上看到艾迪的壮举,并命令刺杀艾迪。刺杀虽然失利,却恍如开启了另一空间的闸门。艾迪不竭蒙受噩梦和陌生影响的困扰,他向心理医生安娜(Patsy Kensit 饰)追求帮助,无意中发现一个完全陌生的自己……
  1. Video
  2. ID                                       : 1
  3. Format                                   : AVC
  4. Format/Info                              : Advanced Video Codec
  5. Format profile                           : [email protected]
  6. Format settings                          : CABAC / 5 Ref Frames
  7. Format settings, CABAC                   : Yes
  8. Format settings, Reference frames        : 5 frames
  9. Codec ID                                 : V_MPEG4/ISO/AVC
  10. Duration                                 : 1 h 36 min
  11. Bit rate                                 : 4 980 kb/s
  12. Width                                    : 1 280 pixels
  13. Height                                   : 688 pixels
  14. Display aspect ratio                     : 1.85:1
  15. Frame rate mode                          : Constant
  16. Frame rate                               : 23.976 (24000/1001) FPS
  17. Color space                              : YUV
  18. Chroma subsampling                       : 4:2:0
  19. Bit depth                                : 8 bits
  20. Scan type                                : Progressive
  21. Bits/(Pixel*Frame)                       : 0.236
  22. Stream size                              : 3.34 GiB (77%)
  23. Writing library                          : x264 core 159 r2991 1771b55
  24. Encoding settings                        : cabac=1 / ref=5 / deblock=1:0:0 / analyse=0x3:0x113 / me=umh / subme=8 / psy=1 / psy_rd=1.00:0.00 / mixed_ref=1 / me_range=16 / chroma_me=1 / trellis=2 / 8x8dct=1 / cqm=0 / deadzone=21,11 / fast_pskip=0 / chroma_qp_offset=-2 / threads=21 / lookahead_threads=3 / sliced_threads=0 / nr=0 / decimate=1 / interlaced=0 / bluray_compat=0 / constrained_intra=0 / bframes=3 / b_pyramid=2 / b_adapt=1 / b_bias=0 / direct=1 / weightb=1 / open_gop=0 / weightp=2 / keyint=250 / keyint_min=23 / scenecut=40 / intra_refresh=0 / rc_lookahead=50 / rc=2pass / mbtree=1 / bitrate=4980 / ratetol=1.0 / qcomp=0.60 / qpmin=0 / qpmax=69 / qpstep=4 / cplxblur=20.0 / qblur=0.5 / ip_ratio=1.40 / aq=1:1.00
  25. Default                                  : Yes
  26. Forced                                   : No

  27. Audio
  28. ID                                       : 2
  29. Format                                   : DTS
  30. Format/Info                              : Digital Theater Systems
  31. Codec ID                                 : A_DTS
  32. Duration                                 : 1 h 36 min
  33. Bit rate mode                            : Constant
  34. Bit rate                                 : 1 509 kb/s
  35. Channel(s)                               : 2 channels
  36. Channel layout                           : L R
  37. Sampling rate                            : 48.0 kHz
  38. Frame rate                               : 93.750 FPS (512 SPF)
  39. Bit depth                                : 24 bits
  40. Compression mode                         : Lossy
  41. Stream size                              : 1.01 GiB (23%)
  42. Language                                 : English
  43. Default                                  : Yes
  44. Forced                                   : No

  45. Menu
  46. 00:00:00.000                             : en:00:00:00.000
  47. 00:03:06.520                             : en:00:03:06.520
  48. 00:06:38.815                             : en:00:06:38.815
  49. 00:13:20.842                             : en:00:13:20.842
  50. 00:19:22.495                             : en:00:19:22.495
  51. 00:23:41.629                             : en:00:23:41.629
  52. 00:28:25.454                             : en:00:28:25.454
  53. 00:35:49.773                             : en:00:35:49.773
  54. 00:42:37.597                             : en:00:42:37.597
  55. 00:48:21.732                             : en:00:48:21.732
  56. 00:52:46.580                             : en:00:52:46.580
  57. 00:56:59.207                             : en:00:56:59.207
  58. 01:01:21.219                             : en:01:01:21.219
  59. 01:20:12.474                             : en:01:20:12.474
  60. 01:28:01.693                             : en:01:28:01.693
  61. 01:32:19.325                             : en:01:32:19.325
复制代码

按时炸弹 Timebomb.1991.720p.BluRay.x264-GUACAMOLE 4.36GB-2.png






回复

使用道具 举报

懒得打字嘛,点击右侧快捷回复 【右侧内容,后台自定义】
您需要登录后才可以回帖 登录 | 立即加入

本版积分规则

Archiver|小黑屋| 蓝光电影网 |网站地图

Copyright © 2021 Comsenz Inc. Powered by 蓝光电影网

蓝光电影网

本站内容由用户自主分享和转载自互联网,转载目的在于传递更多信息,并不代表本网赞同其观点和对其真实性负责。

如有侵权、违反国家法律政策行为,请联系我们,我们会第一时间及时清除和处理!

举报反馈邮箱:[email protected]

快速回复 返回顶部 返回列表