找回密码

蓝光电影网

查看: 619|回复: 1

[喜剧] 仙踪乐园 Oz.Land.2018.JAPANESE.1080p.BluRay.x264.DTS-iKiW 8.50GB

[复制链接]
蓝光币
1022
发表于 2020-2-1 00:30:06 | 显示全部楼层 |阅读模式
仙踪乐园 Oz.Land.2018.JAPANESE.1080p.BluRay.x264.DTS-iKiW 8.50GB-1.png

译  名 仙踪乐园 / Oz Land
片  名 オズランド 笑顔の魔法おしえます。
年  代 2018
产  地 日本
类  别 笑剧 / 恋爱 / 冒险
语  言 日语
上映日期 2018-10-26(日本)
IMDb评分  5.8/10 from 34 users
IMDb链接  https://www.imdb.com/title/tt8219526
豆瓣评分 5.9/10 from 296 users
豆瓣链接 https://movie.douban.com/subject/27124421/
导  演 波多野贵文 Takafumi Hatano
编  剧 小森阳一 Yoichi Komori
主  演 波瑠 Haru
       西岛秀俊 Hidetoshi Nishijima
       桥本爱 Ai Hashimoto
       中村伦也 Tomoya Nakamura


标  签 日本 | 西岛秀俊 | 日本电影 | 波瑠 | 桥本爱 | 2018 | 中村伦也 | 电影

简  介  

  波瑠及西岛秀俊共演《仙踪乐园》(オズランド 笑顔の魔法おしえます。)公然预告片,内容以配角波平久瑠美(波瑠)收到至公司内定起头,以为和男友小西俊郎(中村伦也)一路在饭馆工作,不意要到偏僻的游乐园上班。
  在那边她遇上了被称为「魔法使」的天赋下属小冢庆彦(西岛秀俊),最初她被小冢放置拾渣滓及当查询员,让她感应失落,在小冢的叱咤下,她屡败屡战渐渐获得成就,更找到在游乐园工作上的欢畅,更让好感遭到新的爱情……
  1. Video
  2. ID                                       : 1
  3. Format                                   : AVC
  4. Format/Info                              : Advanced Video Codec
  5. Format profile                           : [email protected]
  6. Format settings                          : CABAC / 5 Ref Frames
  7. Format settings, CABAC                   : Yes
  8. Format settings, Reference frames        : 5 frames
  9. Codec ID                                 : V_MPEG4/ISO/AVC
  10. Duration                                 : 1 h 44 min
  11. Bit rate                                 : 10.1 Mb/s
  12. Width                                    : 1 920 pixels
  13. Height                                   : 804 pixels
  14. Display aspect ratio                     : 2.40:1
  15. Frame rate mode                          : Constant
  16. Frame rate                               : 23.976 (24000/1001) FPS
  17. Color space                              : YUV
  18. Chroma subsampling                       : 4:2:0
  19. Bit depth                                : 8 bits
  20. Scan type                                : Progressive
  21. Bits/(Pixel*Frame)                       : 0.272
  22. Stream size                              : 7.38 GiB (87%)
  23. Writing library                          : x264 core 129 r2245+704+36 8e61944 tMod+MixAQ [[email protected]:2:0 X86_64]
  24. Encoding settings                        : cabac=1 / ref=5 / deblock=1:-1:-1 / analyse=0x3:0x133 / me=umh / subme=11 / psy=1 / fade_compensate=0.00 / psy_rd=1.05:0.10 / mixed_ref=1 / me_range=64 / chroma_me=1 / trellis=2 / 8x8dct=1 / cqm=0 / deadzone=21,11 / fast_pskip=0 / chroma_qp_offset=-3 / threads=18 / lookahead_threads=3 / sliced_threads=0 / nr=0 / decimate=0 / interlaced=0 / bluray_compat=0 / constrained_intra=0 / fgo=0 / bframes=10 / b_pyramid=2 / b_adapt=2 / b_bias=0 / direct=3 / weightb=1 / open_gop=0 / weightp=2 / keyint=250 / keyint_min=23 / scenecut=40 / intra_refresh=0 / rc=2pass / mbtree=0 / bitrate=10070 / ratetol=1.0 / qcomp=0.70 / qpmin=0 / qpmax=69 / qpstep=4 / cplxblur=20.0 / qblur=0.5 / ip_ratio=1.40 / pb_ratio=1.30 / aq=1 / aq-strength=0.90 / aq-sensitivity=10.00 / aq-ifactor=1.00 / aq-pfactor=1.00 / aq-bfactor=1.00 / aq2=0
  25. Language                                 : Japanese
  26. Default                                  : Yes
  27. Forced                                   : No

  28. Audio
  29. ID                                       : 2
  30. Format                                   : DTS
  31. Format/Info                              : Digital Theater Systems
  32. Codec ID                                 : A_DTS
  33. Duration                                 : 1 h 44 min
  34. Bit rate mode                            : Constant
  35. Bit rate                                 : 1 509 kb/s
  36. Channel(s)                               : 6 channels
  37. Channel layout                           : C L R Ls Rs LFE
  38. Sampling rate                            : 48.0 kHz
  39. Frame rate                               : 93.750 FPS (512 SPF)
  40. Bit depth                                : 24 bits
  41. Compression mode                         : Lossy
  42. Stream size                              : 1.11 GiB (13%)
  43. Language                                 : Japanese
  44. Default                                  : Yes
  45. Forced                                   : No

  46. Text #1
  47. ID                                       : 3
  48. Format                                   : UTF-8
  49. Codec ID                                 : S_TEXT/UTF8
  50. Codec ID/Info                            : UTF-8 Plain Text
  51. Duration                                 : 1 h 40 min
  52. Bit rate                                 : 48 b/s
  53. Count of elements                        : 1422
  54. Stream size                              : 35.6 KiB (0%)
  55. Language                                 : English
  56. Default                                  : Yes
  57. Forced                                   : No

  58. Text #2
  59. ID                                       : 4
  60. Format                                   : ASS
  61. Codec ID                                 : S_TEXT/ASS
  62. Codec ID/Info                            : Advanced Sub Station Alpha
  63. Duration                                 : 1 h 41 min
  64. Bit rate                                 : 94 b/s
  65. Count of elements                        : 1423
  66. Compression mode                         : Lossless
  67. Stream size                              : 70.1 KiB (0%)
  68. Language                                 : Chinese
  69. Default                                  : No
  70. Forced                                   : No

  71. Menu
  72. 00:00:00.000                             : en:第 01 章
  73. 00:12:14.984                             : en:第 02 章
  74. 00:24:35.056                             : en:第 03 章
  75. 00:42:48.691                             : en:第 04 章
  76. 00:59:38.074                             : en:第 05 章
  77. 01:15:04.041                             : en:第 06 章
  78. 01:27:06.721                             : en:第 07 章
  79. 01:38:54.595                             : en:第 08 章
复制代码

仙踪乐园 Oz.Land.2018.JAPANESE.1080p.BluRay.x264.DTS-iKiW 8.50GB-2.png 仙踪乐园 Oz.Land.2018.JAPANESE.1080p.BluRay.x264.DTS-iKiW 8.50GB-3.png 仙踪乐园 Oz.Land.2018.JAPANESE.1080p.BluRay.x264.DTS-iKiW 8.50GB-4.png






回复

使用道具 举报

懒得打字嘛,点击右侧快捷回复 【右侧内容,后台自定义】
您需要登录后才可以回帖 登录 | 立即加入

本版积分规则

Archiver|小黑屋| 蓝光电影网 |网站地图

Copyright © 2021 Comsenz Inc. Powered by 蓝光电影网

蓝光电影网

本站内容由用户自主分享和转载自互联网,转载目的在于传递更多信息,并不代表本网赞同其观点和对其真实性负责。

如有侵权、违反国家法律政策行为,请联系我们,我们会第一时间及时清除和处理!

举报反馈邮箱:[email protected]

快速回复 返回顶部 返回列表