找回密码

蓝光电影网

查看: 1010|回复: 4

[10bit.SDR] 街区男孩/头巾少年 Boyz.n.the.Hood.1991.2160p.BluRay.x265.10bit.SDR.DTS-HD.MA.TrueHD.7.1.Atmos-SWTYBLZ 49.25GB

[复制链接]
蓝光币
886
发表于 2020-2-1 14:18:37 | 显示全部楼层 |阅读模式
街区男孩/头巾少年 Boyz.n.the.Hood.1991.2160p.BluRay.x265.10bit.SDR.DTS-HD.MA.TrueHD.7.1.Atmos-SWTYBLZ 49.25GB-1.png

译  名 街区男孩 / 头巾少年 / 邻家少年杀人事务
片  名 Boyz n the Hood
年  代 1991
产  地 美国
类  别 剧情
语  言 英语
上映日期 1991-07-12
IMDb评分  7.7/10 from 116499 users
IMDb链接  https://www.imdb.com/title/tt0101507
豆瓣评分 8.1/10 from 1166 users
豆瓣链接 https://movie.douban.com/subject/1292872/
片  长 112 分钟
导  演 John Singleton
编  剧 John Singleton
主  演 小库珀·古丁 Cuba Gooding Jr.
       劳伦斯·菲什伯恩 Laurence Fishburne
       艾斯·库珀 Ice Cube
       安吉拉·贝塞特 Angela Bassett
       Hudhail Al-Amir


标  签 美国 | 犯罪 | 黑人 | 青春 | 1991 | 美国电影 | 种族 | hiphop

简  介  

  在美国西部的黑人街区中,暴力与犯罪几近随时都在发生,街上闲晃的青年与草丛里发臭的尸身点缀着小门生提瑞·斯代尔天天与伙伴们的生活,提瑞性情多话好胜,在课堂上与同学大打脱手,为了他的教育题目,母亲将提瑞送到了前夫福瑞斯(劳伦斯·菲什伯恩 Laurence Fishburne 饰)那边,父亲有着强悍的本性,提瑞在他的指导下长大着……七年以后,提瑞(小库珀·古丁 Cuba Gooding Jr 饰)已是一位青年,黑人街区的紊乱状态并没有改良,提瑞和他的朋友们卷入了宿命般的陌头仇杀中……
  本片编导约翰·辛格顿以23岁之龄获得奥斯卡最好导演提名,连结着最年轻获提名导演的记载。

获奖情况  

  第64届奥斯卡金像奖(1992)
  最好导演(提名) 约翰·辛格顿
  最好原创剧本(提名) 约翰·辛格顿
  1. Video
  2. ID                                       : 1
  3. Format                                   : HEVC
  4. Format/Info                              : High Efficiency Video Coding
  5. Format profile                           : Main [email protected]@High
  6. Codec ID                                 : V_MPEGH/ISO/HEVC
  7. Duration                                 : 1 h 52 min
  8. Bit rate                                 : 54.3 Mb/s
  9. Width                                    : 3 840 pixels
  10. Height                                   : 2 076 pixels
  11. Display aspect ratio                     : 1.85:1
  12. Frame rate mode                          : Constant
  13. Frame rate                               : 23.976 (24000/1001) FPS
  14. Color space                              : YUV
  15. Chroma subsampling                       : 4:2:0
  16. Bit depth                                : 10 bits
  17. Bits/(Pixel*Frame)                       : 0.284
  18. Stream size                              : 42.6 GiB (87%)
  19. Title                                    : Boyz.n.the.Hood.1991.2160p.BluRay.x265.10bit.SDR.DTS-HD.MA.TrueHD.7.1.Atmos-SWTYBLZ
  20. Writing library                          : x265 3.0ed72af837053:[Windows][GCC 8.2.0][64 bit] 10bit
  21. Encoding settings                        : cpuid=1111039 / frame-threads=16 / numa-pools=40 / wpp / no-pmode / no-pme / no-psnr / no-ssim / log-level=2 / input-csp=1 / input-res=3840x2076 / interlace=0 / total-frames=161304 / level-idc=51 / high-tier=1 / uhd-bd=0 / ref=3 / no-allow-non-conformance / repeat-headers / annexb / aud / hrd / info / hash=0 / no-temporal-layers / no-open-gop / min-keyint=1 / keyint=24 / gop-lookahead=0 / bframes=4 / b-adapt=2 / b-pyramid / bframe-bias=0 / rc-lookahead=25 / lookahead-slices=4 / scenecut=40 / radl=0 / no-splice / no-intra-refresh / ctu=64 / min-cu-size=8 / no-rect / no-amp / max-tu-size=32 / tu-inter-depth=1 / tu-intra-depth=1 / limit-tu=0 / rdoq-level=0 / dynamic-rd=0.00 / no-ssim-rd / signhide / no-tskip / nr-intra=0 / nr-inter=0 / no-constrained-intra / strong-intra-smoothing / max-merge=2 / limit-refs=3 / no-limit-modes / me=1 / subme=2 / merange=57 / temporal-mvp / weightp / no-weightb / no-analyze-src-pics / deblock=0:0 / no-sao / no-sao-non-deblock / rd=3 / no-early-skip / rskip / no-fast-intra / no-tskip-fast / no-cu-lossless / no-b-intra / no-splitrd-skip / rdpenalty=0 / psy-rd=2.00 / psy-rdoq=0.00 / no-rd-refine / no-lossless / cbqpoffs=0 / crqpoffs=0 / rc=crf / crf=20.0 / qcomp=0.60 / qpstep=4 / stats-write=0 / stats-read=0 / vbv-maxrate=160000 / vbv-bufsize=160000 / vbv-init=0.9 / crf-max=0.0 / crf-min=0.0 / ipratio=1.40 / pbratio=1.30 / aq-mode=1 / aq-strength=1.00 / cutree / zone-count=0 / no-strict-cbr / qg-size=32 / no-rc-grain / qpmax=69 / qpmin=0 / no-const-vbv / sar=1 / overscan=0 / videoformat=5 / range=0 / colorprim=2 / transfer=2 / colormatrix=2 / chromaloc=0 / display-window=0 / max-cll=0,0 / min-luma=0 / max-luma=1023 / log2-max-poc-lsb=8 / vui-timing-info / vui-hrd-info / slices=1 / opt-qp-pps / opt-ref-list-length-pps / no-multi-pass-opt-rps / scenecut-bias=0.05 / no-opt-cu-delta-qp / no-aq-motion / no-hdr / no-hdr-opt / no-dhdr10-opt / no-idr-recovery-sei / analysis-reuse-level=5 / scale-factor=0 / refine-intra=0 / refine-inter=0 / refine-mv=0 / refine-ctu-distortion=0 / no-limit-sao / ctu-info=0 / no-lowpass-dct / refine-analysis-type=0 / copy-pic=1 / max-ausize-factor=1.0 / no-dynamic-refine / no-single-sei / no-hevc-aq / qp-adaptation-range=1.00
  22. Default                                  : Yes
  23. Forced                                   : No

  24. Audio #1
  25. ID                                       : 2
  26. Format                                   : MLP FBA 16-ch
  27. Format/Info                              : Meridian Lossless Packing FBA with 16-channel presentation
  28. Commercial name                          : Dolby TrueHD with Dolby Atmos
  29. Codec ID                                 : A_TRUEHD
  30. Duration                                 : 1 h 52 min
  31. Bit rate mode                            : Variable
  32. Bit rate                                 : 3 264 kb/s
  33. Maximum bit rate                         : 5 040 kb/s
  34. Channel(s)                               : 8 channels
  35. Channel layout                           : L R C LFE Ls Rs Lb Rb
  36. Sampling rate                            : 48.0 kHz
  37. Frame rate                               : 1 200.000 FPS (40 SPF)
  38. Compression mode                         : Lossless
  39. Stream size                              : 2.56 GiB (5%)
  40. Title                                    : Boyz.n.the.Hood.1991.2160p.BluRay.x265.10bit.SDR.DTS-HD.MA.TrueHD.7.1.Atmos-SWTYBLZ
  41. Language                                 : English
  42. Default                                  : Yes
  43. Forced                                   : No
  44. Number of dynamic objects                : 11
  45. Bed channel count                        : 1 channel
  46. Bed channel configuration                : LFE

  47. Audio #2
  48. ID                                       : 3
  49. Format                                   : DTS XLL
  50. Format/Info                              : Digital Theater Systems
  51. Commercial name                          : DTS-HD Master Audio
  52. Codec ID                                 : A_DTS
  53. Duration                                 : 1 h 52 min
  54. Bit rate mode                            : Variable
  55. Bit rate                                 : 4 039 kb/s
  56. Channel(s)                               : 8 channels
  57. Channel layout                           : C L R LFE Lb Rb Lss Rss
  58. Sampling rate                            : 48.0 kHz
  59. Frame rate                               : 93.750 FPS (512 SPF)
  60. Bit depth                                : 24 bits
  61. Compression mode                         : Lossless
  62. Stream size                              : 3.16 GiB (6%)
  63. Title                                    : Boyz.n.the.Hood.1991.2160p.BluRay.x265.10bit.SDR.DTS-HD.MA.TrueHD.7.1.Atmos-SWTYBLZ
  64. Language                                 : English
  65. Default                                  : No
  66. Forced                                   : No

  67. Audio #3
  68. ID                                       : 4
  69. Format                                   : AC-3
  70. Format/Info                              : Audio Coding 3
  71. Commercial name                          : Dolby Digital
  72. Codec ID                                 : A_AC3
  73. Duration                                 : 1 h 52 min
  74. Bit rate mode                            : Constant
  75. Bit rate                                 : 640 kb/s
  76. Channel(s)                               : 6 channels
  77. Channel layout                           : L R C LFE Ls Rs
  78. Sampling rate                            : 48.0 kHz
  79. Frame rate                               : 31.250 FPS (1536 SPF)
  80. Compression mode                         : Lossy
  81. Stream size                              : 513 MiB (1%)
  82. Title                                    : Boyz.n.the.Hood.1991.2160p.BluRay.x265.10bit.SDR.DTS-HD.MA.TrueHD.7.1.Atmos-SWTYBLZ
  83. Language                                 : English
  84. Service kind                             : Complete Main
  85. Default                                  : No
  86. Forced                                   : No

  87. Text #1
  88. ID                                       : 5
  89. Format                                   : UTF-8
  90. Codec ID                                 : S_TEXT/UTF8
  91. Codec ID/Info                            : UTF-8 Plain Text
  92. Duration                                 : 1 h 46 min
  93. Bit rate                                 : 59 b/s
  94. Count of elements                        : 1318
  95. Stream size                              : 46.6 KiB (0%)
  96. Title                                    : English-SRT
  97. Language                                 : English
  98. Default                                  : Yes
  99. Forced                                   : No

  100. Text #2
  101. ID                                       : 6
  102. Format                                   : PGS
  103. Muxing mode                              : zlib
  104. Codec ID                                 : S_HDMV/PGS
  105. Codec ID/Info                            : Picture based subtitle format used on BDs/HD-DVDs
  106. Duration                                 : 1 h 46 min
  107. Bit rate                                 : 34.8 kb/s
  108. Count of elements                        : 2642
  109. Stream size                              : 26.6 MiB (0%)
  110. Title                                    : English-PGS
  111. Language                                 : English
  112. Default                                  : No
  113. Forced                                   : No

  114. Text #3
  115. ID                                       : 7
  116. Format                                   : PGS
  117. Muxing mode                              : zlib
  118. Codec ID                                 : S_HDMV/PGS
  119. Codec ID/Info                            : Picture based subtitle format used on BDs/HD-DVDs
  120. Duration                                 : 1 h 51 min
  121. Bit rate                                 : 39.8 kb/s
  122. Count of elements                        : 3162
  123. Stream size                              : 31.7 MiB (0%)
  124. Title                                    : English-SDH-PGS
  125. Language                                 : English
  126. Default                                  : No
  127. Forced                                   : No

  128. Text #4
  129. ID                                       : 8
  130. Format                                   : PGS
  131. Muxing mode                              : zlib
  132. Codec ID                                 : S_HDMV/PGS
  133. Codec ID/Info                            : Picture based subtitle format used on BDs/HD-DVDs
  134. Duration                                 : 1 h 48 min
  135. Bit rate                                 : 18.7 kb/s
  136. Count of elements                        : 2656
  137. Stream size                              : 14.4 MiB (0%)
  138. Title                                    : Arabic-PGS
  139. Language                                 : Arabic
  140. Default                                  : No
  141. Forced                                   : No

  142. Text #5
  143. ID                                       : 9
  144. Format                                   : PGS
  145. Muxing mode                              : zlib
  146. Codec ID                                 : S_HDMV/PGS
  147. Codec ID/Info                            : Picture based subtitle format used on BDs/HD-DVDs
  148. Duration                                 : 1 h 52 min
  149. Bit rate                                 : 27.5 kb/s
  150. Count of elements                        : 2662
  151. Stream size                              : 22.0 MiB (0%)
  152. Title                                    : Chinese-PGS
  153. Language                                 : Chinese
  154. Default                                  : No
  155. Forced                                   : No

  156. Text #6
  157. ID                                       : 10
  158. Format                                   : PGS
  159. Muxing mode                              : zlib
  160. Codec ID                                 : S_HDMV/PGS
  161. Codec ID/Info                            : Picture based subtitle format used on BDs/HD-DVDs
  162. Duration                                 : 1 h 48 min
  163. Bit rate                                 : 22.0 kb/s
  164. Count of elements                        : 1622
  165. Stream size                              : 17.0 MiB (0%)
  166. Title                                    : Danish-PGS
  167. Language                                 : Danish
  168. Default                                  : No
  169. Forced                                   : No

  170. Text #7
  171. ID                                       : 11
  172. Format                                   : PGS
  173. Muxing mode                              : zlib
  174. Codec ID                                 : S_HDMV/PGS
  175. Codec ID/Info                            : Picture based subtitle format used on BDs/HD-DVDs
  176. Duration                                 : 1 h 48 min
  177. Bit rate                                 : 22.9 kb/s
  178. Count of elements                        : 1582
  179. Stream size                              : 17.7 MiB (0%)
  180. Title                                    : Dutch-PGS
  181. Language                                 : Dutch
  182. Default                                  : No
  183. Forced                                   : No

  184. Text #8
  185. ID                                       : 12
  186. Format                                   : PGS
  187. Muxing mode                              : zlib
  188. Codec ID                                 : S_HDMV/PGS
  189. Codec ID/Info                            : Picture based subtitle format used on BDs/HD-DVDs
  190. Duration                                 : 1 h 48 min
  191. Bit rate                                 : 27.0 kb/s
  192. Count of elements                        : 2016
  193. Stream size                              : 20.8 MiB (0%)
  194. Title                                    : Finnish-PGS
  195. Language                                 : Finnish
  196. Default                                  : No
  197. Forced                                   : No

  198. Text #9
  199. ID                                       : 13
  200. Format                                   : PGS
  201. Muxing mode                              : zlib
  202. Codec ID                                 : S_HDMV/PGS
  203. Codec ID/Info                            : Picture based subtitle format used on BDs/HD-DVDs
  204. Duration                                 : 1 h 52 min
  205. Bit rate                                 : 27.9 kb/s
  206. Count of elements                        : 2570
  207. Stream size                              : 22.4 MiB (0%)
  208. Title                                    : French-PGS
  209. Language                                 : French
  210. Default                                  : No
  211. Forced                                   : No

  212. Text #10
  213. ID                                       : 14
  214. Format                                   : PGS
  215. Muxing mode                              : zlib
  216. Codec ID                                 : S_HDMV/PGS
  217. Codec ID/Info                            : Picture based subtitle format used on BDs/HD-DVDs
  218. Duration                                 : 1 h 52 min
  219. Bit rate                                 : 35.9 kb/s
  220. Count of elements                        : 2666
  221. Stream size                              : 28.8 MiB (0%)
  222. Title                                    : German-PGS
  223. Language                                 : German
  224. Default                                  : No
  225. Forced                                   : No

  226. Text #11
  227. ID                                       : 15
  228. Format                                   : PGS
  229. Muxing mode                              : zlib
  230. Codec ID                                 : S_HDMV/PGS
  231. Codec ID/Info                            : Picture based subtitle format used on BDs/HD-DVDs
  232. Duration                                 : 1 h 52 min
  233. Bit rate                                 : 34.5 kb/s
  234. Count of elements                        : 2676
  235. Stream size                              : 27.7 MiB (0%)
  236. Title                                    : Icelandic-PGS
  237. Language                                 : Icelandic
  238. Default                                  : No
  239. Forced                                   : No

  240. Text #12
  241. ID                                       : 16
  242. Format                                   : PGS
  243. Muxing mode                              : zlib
  244. Codec ID                                 : S_HDMV/PGS
  245. Codec ID/Info                            : Picture based subtitle format used on BDs/HD-DVDs
  246. Duration                                 : 1 h 52 min
  247. Bit rate                                 : 30.6 kb/s
  248. Count of elements                        : 2668
  249. Stream size                              : 24.5 MiB (0%)
  250. Title                                    : Italian-PGS
  251. Language                                 : Italian
  252. Default                                  : No
  253. Forced                                   : No

  254. Text #13
  255. ID                                       : 17
  256. Format                                   : PGS
  257. Muxing mode                              : zlib
  258. Codec ID                                 : S_HDMV/PGS
  259. Codec ID/Info                            : Picture based subtitle format used on BDs/HD-DVDs
  260. Duration                                 : 1 h 52 min
  261. Bit rate                                 : 22.7 kb/s
  262. Count of elements                        : 2686
  263. Stream size                              : 18.2 MiB (0%)
  264. Title                                    : Korean-PGS
  265. Language                                 : Korean
  266. Default                                  : No
  267. Forced                                   : No

  268. Text #14
  269. ID                                       : 18
  270. Format                                   : PGS
  271. Muxing mode                              : zlib
  272. Codec ID                                 : S_HDMV/PGS
  273. Codec ID/Info                            : Picture based subtitle format used on BDs/HD-DVDs
  274. Duration                                 : 1 h 48 min
  275. Bit rate                                 : 20.9 kb/s
  276. Count of elements                        : 1612
  277. Stream size                              : 16.1 MiB (0%)
  278. Title                                    : Norwegian-PGS
  279. Language                                 : Norwegian
  280. Default                                  : No
  281. Forced                                   : No

  282. Text #15
  283. ID                                       : 19
  284. Format                                   : PGS
  285. Muxing mode                              : zlib
  286. Codec ID                                 : S_HDMV/PGS
  287. Codec ID/Info                            : Picture based subtitle format used on BDs/HD-DVDs
  288. Duration                                 : 1 h 48 min
  289. Bit rate                                 : 28.6 kb/s
  290. Count of elements                        : 2428
  291. Stream size                              : 22.1 MiB (0%)
  292. Title                                    : Portuguese-PGS
  293. Language                                 : Portuguese
  294. Default                                  : No
  295. Forced                                   : No

  296. Text #16
  297. ID                                       : 20
  298. Format                                   : PGS
  299. Muxing mode                              : zlib
  300. Codec ID                                 : S_HDMV/PGS
  301. Codec ID/Info                            : Picture based subtitle format used on BDs/HD-DVDs
  302. Duration                                 : 1 h 52 min
  303. Bit rate                                 : 24.8 kb/s
  304. Count of elements                        : 2666
  305. Stream size                              : 19.9 MiB (0%)
  306. Title                                    : Spanish-PGS
  307. Language                                 : Spanish
  308. Default                                  : No
  309. Forced                                   : No

  310. Text #17
  311. ID                                       : 21
  312. Format                                   : PGS
  313. Muxing mode                              : zlib
  314. Codec ID                                 : S_HDMV/PGS
  315. Codec ID/Info                            : Picture based subtitle format used on BDs/HD-DVDs
  316. Duration                                 : 1 h 48 min
  317. Bit rate                                 : 29.4 kb/s
  318. Count of elements                        : 2386
  319. Stream size                              : 22.7 MiB (0%)
  320. Title                                    : Spanish-PGS
  321. Language                                 : Spanish
  322. Default                                  : No
  323. Forced                                   : No

  324. Text #18
  325. ID                                       : 22
  326. Format                                   : PGS
  327. Muxing mode                              : zlib
  328. Codec ID                                 : S_HDMV/PGS
  329. Codec ID/Info                            : Picture based subtitle format used on BDs/HD-DVDs
  330. Duration                                 : 1 h 52 min
  331. Bit rate                                 : 21.2 kb/s
  332. Count of elements                        : 1592
  333. Stream size                              : 17.0 MiB (0%)
  334. Title                                    : Swedish-PGS
  335. Language                                 : Swedish
  336. Default                                  : No
  337. Forced                                   : No

  338. Text #19
  339. ID                                       : 23
  340. Format                                   : PGS
  341. Muxing mode                              : zlib
  342. Codec ID                                 : S_HDMV/PGS
  343. Codec ID/Info                            : Picture based subtitle format used on BDs/HD-DVDs
  344. Duration                                 : 1 h 52 min
  345. Bit rate                                 : 26.1 kb/s
  346. Count of elements                        : 2660
  347. Stream size                              : 20.9 MiB (0%)
  348. Title                                    : Thai-PGS
  349. Language                                 : Thai
  350. Default                                  : No
  351. Forced                                   : No

  352. Text #20
  353. ID                                       : 24
  354. Format                                   : PGS
  355. Muxing mode                              : zlib
  356. Codec ID                                 : S_HDMV/PGS
  357. Codec ID/Info                            : Picture based subtitle format used on BDs/HD-DVDs
  358. Duration                                 : 1 h 52 min
  359. Bit rate                                 : 28.5 kb/s
  360. Count of elements                        : 2644
  361. Stream size                              : 22.9 MiB (0%)
  362. Title                                    : Turkish-PGS
  363. Language                                 : Turkish
  364. Default                                  : No
  365. Forced                                   : No

  366. Menu
  367. 00:00:00.000                             : en:Start
  368. 00:00:52.844                             : en:South Central
  369. 00:03:11.817                             : en:Mr. Styles
  370. 00:05:03.553                             : en:The Agreement
  371. 00:07:10.138                             : en:"You Got Him"
  372. 00:12:14.609                             : en:House Rules
  373. 00:14:06.846                             : en:Burglary
  374. 00:17:30.383                             : en:The Neighbors
  375. 00:20:13.838                             : en:With Chris
  376. 00:24:53.951                             : en:Facts Of Life
  377. 00:28:59.279                             : en:Seven Years Later
  378. 00:37:52.395                             : en:Not Old, Better
  379. 00:41:19.769                             : en:Tisha
  380. 00:44:15.361                             : en:"I Lied To Pops"
  381. 00:49:49.153                             : en:Mama Calls
  382. 00:55:08.347                             : en:Lewis Crump
  383. 01:00:52.315                             : en:S.A.T. Test
  384. 01:02:15.231                             : en:Furious
  385. 01:06:54.427                             : en:On Crenshaw
  386. 01:11:42.632                             : en:Pulled Over
  387. 01:13:54.013                             : en:With Brandi
  388. 01:17:49.874                             : en:Miss Deveroux
  389. 01:20:52.556                             : en:Doughboy & Ricky
  390. 01:25:58.320                             : en:Cut
  391. 01:28:02.486                             : en:Gang Shooting
  392. 01:32:34.090                             : en:"Give Me The Gun"
  393. 01:36:02.966                             : en:Getting Even
  394. 01:42:37.568                             : en:Next Morning
  395. 01:48:03.644                             : en:End Credits
复制代码

街区男孩/头巾少年 Boyz.n.the.Hood.1991.2160p.BluRay.x265.10bit.SDR.DTS-HD.MA.TrueHD.7.1.Atmos-SWTYBLZ 49.25GB-1.png 街区男孩/头巾少年 Boyz.n.the.Hood.1991.2160p.BluRay.x265.10bit.SDR.DTS-HD.MA.TrueHD.7.1.Atmos-SWTYBLZ 49.25GB-3.png 街区男孩/头巾少年 Boyz.n.the.Hood.1991.2160p.BluRay.x265.10bit.SDR.DTS-HD.MA.TrueHD.7.1.Atmos-SWTYBLZ 49.25GB-4.png 街区男孩/头巾少年 Boyz.n.the.Hood.1991.2160p.BluRay.x265.10bit.SDR.DTS-HD.MA.TrueHD.7.1.Atmos-SWTYBLZ 49.25GB-5.png 街区男孩/头巾少年 Boyz.n.the.Hood.1991.2160p.BluRay.x265.10bit.SDR.DTS-HD.MA.TrueHD.7.1.Atmos-SWTYBLZ 49.25GB-6.png 街区男孩/头巾少年 Boyz.n.the.Hood.1991.2160p.BluRay.x265.10bit.SDR.DTS-HD.MA.TrueHD.7.1.Atmos-SWTYBLZ 49.25GB-7.png 街区男孩/头巾少年 Boyz.n.the.Hood.1991.2160p.BluRay.x265.10bit.SDR.DTS-HD.MA.TrueHD.7.1.Atmos-SWTYBLZ 49.25GB-8.png 街区男孩/头巾少年 Boyz.n.the.Hood.1991.2160p.BluRay.x265.10bit.SDR.DTS-HD.MA.TrueHD.7.1.Atmos-SWTYBLZ 49.25GB-9.png






回复

使用道具 举报

蓝光币
459
发表于 2020-2-5 15:28:03 | 显示全部楼层
楼主发贴辛苦了,谢谢楼主分享!我觉得蓝光电影网是注册对了!
回复 支持 反对

使用道具 举报

懒得打字嘛,点击右侧快捷回复 【右侧内容,后台自定义】
您需要登录后才可以回帖 登录 | 立即加入

本版积分规则

Archiver|小黑屋| 蓝光电影网 |网站地图

Copyright © 2021 Comsenz Inc. Powered by 蓝光电影网

蓝光电影网

本站内容由用户自主分享和转载自互联网,转载目的在于传递更多信息,并不代表本网赞同其观点和对其真实性负责。

如有侵权、违反国家法律政策行为,请联系我们,我们会第一时间及时清除和处理!

举报反馈邮箱:[email protected]

快速回复 返回顶部 返回列表