找回密码

蓝光电影网

查看: 117|回复: 0

[剧情] 斯威湖之歌/摇曳之歌 The.Song.of.Sway.Lake.2017.1080p.AMZN.WEBRip.DDP5.1.x264-CM 6.31GB

[复制链接]
蓝光币
886
发表于 2020-2-1 14:30:18 | 显示全部楼层 |阅读模式
斯威湖之歌/摇摆之歌 The.Song.of.Sway.Lake.2017.1080p.AMZN.WEBRip.DDP5.1.x264-CM 6.31GB-1.png

译  名 斯威湖之歌 / 摇摆之歌
片  名 The Song of Sway Lake
年  代 2017
产  地 美国
类  别 剧情 / 恋爱 / 歌舞
语  言 英语
上映日期 2017-06-21(美国)
IMDb评分  6.1/10 from 326 users
IMDb链接  https://www.imdb.com/title/tt6371588
豆瓣评分 6.4/10 from 131 users
豆瓣链接 https://movie.douban.com/subject/27176567/
片  长 100分钟
导  演 Ari Gold
编  剧 Elizabeth Bull / Ari Gold
主  演 罗瑞·卡尔金 Rory Culkin
       罗伯特·席安 Robert Sheehan
       Isabelle McNally
       玛丽·贝丝·佩尔 Mary Beth Peil
       伊丽莎白·佩纳 Elizabeth Pe?a
       杰克·法拉赫 Jack Falahee
       布莱恩·丹内利 Brian Dennehy


标  签 美国 | 剧情 | 2017 | 青春 | 美国电影 | 恋爱 | 音乐 | 人性

简  介  

  音乐收藏家奥利·斯韦招募了他唯一的朋友,一个吵闹的俄罗斯流浪者,帮助他从自己家里的庄园里偷了一张78张唱片。
  1. Video
  2. ID                                       : 1
  3. Format                                   : AVC
  4. Format/Info                              : Advanced Video Codec
  5. Format profile                           : [email protected]
  6. Format settings                          : CABAC / 4 Ref Frames
  7. Format settings, CABAC                   : Yes
  8. Format settings, Reference frames        : 4 frames
  9. Codec ID                                 : V_MPEG4/ISO/AVC
  10. Duration                                 : 1 h 34 min
  11. Bit rate                                 : 8 945 kb/s
  12. Width                                    : 1 920 pixels
  13. Height                                   : 1 040 pixels
  14. Display aspect ratio                     : 1.85:1
  15. Frame rate mode                          : Constant
  16. Frame rate                               : 23.976 (24000/1001) FPS
  17. Color space                              : YUV
  18. Chroma subsampling                       : 4:2:0
  19. Bit depth                                : 8 bits
  20. Scan type                                : Progressive
  21. Bits/(Pixel*Frame)                       : 0.187
  22. Stream size                              : 5.89 GiB (93%)
  23. Default                                  : Yes
  24. Forced                                   : No
  25. Color range                              : Limited
  26. Color primaries                          : BT.709
  27. Transfer characteristics                 : BT.709
  28. Matrix coefficients                      : BT.709

  29. Audio
  30. ID                                       : 2
  31. Format                                   : E-AC-3
  32. Format/Info                              : Enhanced AC-3
  33. Commercial name                          : Dolby Digital Plus
  34. Codec ID                                 : A_EAC3
  35. Duration                                 : 1 h 34 min
  36. Bit rate mode                            : Constant
  37. Bit rate                                 : 640 kb/s
  38. Channel(s)                               : 6 channels
  39. Channel layout                           : L R C LFE Ls Rs
  40. Sampling rate                            : 48.0 kHz
  41. Frame rate                               : 31.250 FPS (1536 SPF)
  42. Compression mode                         : Lossy
  43. Stream size                              : 431 MiB (7%)
  44. Title                                    : English
  45. Language                                 : English
  46. Service kind                             : Complete Main
  47. Default                                  : Yes
  48. Forced                                   : No

  49. Text
  50. ID                                       : 3
  51. Format                                   : UTF-8
  52. Codec ID                                 : S_TEXT/UTF8
  53. Codec ID/Info                            : UTF-8 Plain Text
  54. Duration                                 : 1 h 31 min
  55. Bit rate                                 : 44 b/s
  56. Count of elements                        : 1181
  57. Stream size                              : 29.8 KiB (0%)
  58. Title                                    : English [SDH]
  59. Language                                 : English
  60. Default                                  : No
  61. Forced                                   : No
复制代码

斯威湖之歌/摇摆之歌 The.Song.of.Sway.Lake.2017.1080p.AMZN.WEBRip.DDP5.1.x264-CM 6.31GB-1.png 斯威湖之歌/摇摆之歌 The.Song.of.Sway.Lake.2017.1080p.AMZN.WEBRip.DDP5.1.x264-CM 6.31GB-3.png 斯威湖之歌/摇摆之歌 The.Song.of.Sway.Lake.2017.1080p.AMZN.WEBRip.DDP5.1.x264-CM 6.31GB-4.png






回复

使用道具 举报

懒得打字嘛,点击右侧快捷回复 【右侧内容,后台自定义】
您需要登录后才可以回帖 登录 | 立即加入

本版积分规则

Archiver|小黑屋| 蓝光电影网 |网站地图

Copyright © 2021 Comsenz Inc. Powered by 蓝光电影网

蓝光电影网

本站内容由用户自主分享和转载自互联网,转载目的在于传递更多信息,并不代表本网赞同其观点和对其真实性负责。

如有侵权、违反国家法律政策行为,请联系我们,我们会第一时间及时清除和处理!

举报反馈邮箱:[email protected]

快速回复 返回顶部 返回列表