找回密码

蓝光电影网

查看: 309|回复: 0

[喜剧] 十一月规则 November.Rule.2015.1080p.NF.WEBRip.DD5.1.x264-PiA 6.12GB

[复制链接]
蓝光币
886
发表于 2020-2-1 14:34:45 | 显示全部楼层 |阅读模式
十一月法则 November.Rule.2015.1080p.NF.WEBRip.DD5.1.x264-PiA 6.12GB-1.png

译  名 十一月法则
片  名 November Rule
年  代 2015
产  地 美国
类  别 笑剧
语  言 英语
上映日期 2015-02-14(美国)
IMDb评分  5.4/10 from 809 users
IMDb链接  https://www.imdb.com/title/tt3273434
豆瓣评分 0/10 from 0 users
豆瓣链接 https://movie.douban.com/subject/26921907/
片  长 94分钟
导  演 麦克·艾略特 Mike Elliot
编  剧 Candice Childress / Juwan Lee / Cecelia Ross
主  演 莫·麦克雷 Mo McRae
       塔缇娜·阿里 Tatyana Ali
       DJ·考尔斯 DJ Qualls
       La La Anthony
       瑞克·冈萨雷斯 Rick Gonzalez
       杰·埃利斯 Jay Ellis
       Joyful Drake
       维多利亚·洛威尔 Victoria Rowell
       巴瑞·波斯威克 Barry Bostwick
       费松·拉夫 Faizon Love
       玛西·格雷 Macy Gray
       卡莉·霍克 Kali Hawk
       Nellie Perez
       Starshell
       泰加 Tyga


简  介  

  和未来的活动鞋的企业家史提夫|谁仍在从他爸爸|死了一个“十一月”法则以连结着间隔的女人谁似乎对他们的关系太严重。每年的11月1日|史提夫使了一个天大的假话为了与他的现任女友分手。但是|今年|当他给美丽的利亚走在她的论文|他意想到自己的不成熟和独裁统治也就落空了他胡想中的女人。但他能否能赢得利亚似乎越来越思疑|特别是她起头约会的职业体育明星| James Avedon后。
  1. Video
  2. ID                                       : 1
  3. Format                                   : AVC
  4. Format/Info                              : Advanced Video Codec
  5. Format profile                           : [email protected]
  6. Format settings                          : CABAC / 4 Ref Frames
  7. Format settings, CABAC                   : Yes
  8. Format settings, Reference frames        : 4 frames
  9. Format settings, GOP                     : M=2, N=15
  10. Muxing mode                              : Header stripping
  11. Codec ID                                 : V_MPEG4/ISO/AVC
  12. Duration                                 : 1 h 34 min
  13. Bit rate                                 : 8 715 kb/s
  14. Width                                    : 1 920 pixels
  15. Height                                   : 1 080 pixels
  16. Display aspect ratio                     : 16:9
  17. Frame rate mode                          : Constant
  18. Frame rate                               : 23.976 (24000/1001) FPS
  19. Color space                              : YUV
  20. Chroma subsampling                       : 4:2:0
  21. Bit depth                                : 8 bits
  22. Scan type                                : Progressive
  23. Bits/(Pixel*Frame)                       : 0.175
  24. Stream size                              : 5.74 GiB (94%)
  25. Writing library                          : x264 core 148 r2721 72d53ab
  26. Encoding settings                        : cabac=1 / ref=4 / deblock=1:-3:-3 / analyse=0x3:0x133 / me=umh / subme=10 / psy=1 / psy_rd=1.00:0.15 / mixed_ref=1 / me_range=24 / chroma_me=1 / trellis=2 / 8x8dct=1 / cqm=0 / deadzone=21,11 / fast_pskip=1 / chroma_qp_offset=-2 / threads=12 / lookahead_threads=2 / sliced_threads=0 / nr=0 / decimate=1 / interlaced=0 / bluray_compat=0 / constrained_intra=0 / bframes=8 / b_pyramid=2 / b_adapt=2 / b_bias=0 / direct=3 / weightb=1 / open_gop=0 / weightp=2 / keyint=240 / keyint_min=23 / scenecut=40 / intra_refresh=0 / rc_lookahead=60 / rc=crf / mbtree=1 / crf=17.0 / qcomp=0.60 / qpmin=0 / qpmax=69 / qpstep=4 / ip_ratio=1.40 / aq=3:0.80
  27. Language                                 : English
  28. Default                                  : Yes
  29. Forced                                   : No
  30. Statistics Tags Issue                    : mkvmerge v8.3.0 ('Over the Horizon') 64bit 2016-11-21 09:38:08 / mkvmerge v5.1.0 ('And so it goes') built on Feb  1 2012 11:32:58 2016-11-21 19:37:03
  31. FromStats_BitRate                        : 8898110
  32. FromStats_Duration                       : 01:34:21.698000000
  33. FromStats_FrameCount                     : 135745
  34. FromStats_StreamSize                     : 6297302065

  35. Audio
  36. ID                                       : 2
  37. Format                                   : AC-3
  38. Format/Info                              : Audio Coding 3
  39. Commercial name                          : Dolby Digital
  40. Muxing mode                              : Header stripping
  41. Codec ID                                 : A_AC3
  42. Duration                                 : 1 h 34 min
  43. Bit rate mode                            : Constant
  44. Bit rate                                 : 384 kb/s
  45. Channel(s)                               : 6 channels
  46. Channel layout                           : L R C LFE Ls Rs
  47. Sampling rate                            : 48.0 kHz
  48. Frame rate                               : 31.250 FPS (1536 SPF)
  49. Compression mode                         : Lossy
  50. Stream size                              : 259 MiB (4%)
  51. Language                                 : English
  52. Service kind                             : Complete Main
  53. Default                                  : Yes
  54. Forced                                   : Yes
  55. Statistics Tags Issue                    : mkvmerge v8.3.0 ('Over the Horizon') 64bit 2016-11-21 09:38:08 / mkvmerge v5.1.0 ('And so it goes') built on Feb  1 2012 11:32:58 2016-11-21 19:37:03
  56. FromStats_BitRate                        : 384000
  57. FromStats_Duration                       : 01:34:21.728000000
  58. FromStats_FrameCount                     : 176929
  59. FromStats_StreamSize                     : 271762944

  60. Text #1
  61. ID                                       : 3
  62. Format                                   : UTF-8
  63. Codec ID                                 : S_TEXT/UTF8
  64. Codec ID/Info                            : UTF-8 Plain Text
  65. Language                                 : English
  66. Default                                  : No
  67. Forced                                   : No
  68. Statistics Tags Issue                    : mkvmerge v8.3.0 ('Over the Horizon') 64bit 2016-11-21 09:38:08 / mkvmerge v5.1.0 ('And so it goes') built on Feb  1 2012 11:32:58 2016-11-21 19:37:03
  69. FromStats_BitRate                        : 103
  70. FromStats_Duration                       : 01:33:52.002000000
  71. FromStats_FrameCount                     : 2313
  72. FromStats_StreamSize                     : 72638

  73. Text #2
  74. ID                                       : 4
  75. Format                                   : UTF-8
  76. Codec ID                                 : S_TEXT/UTF8
  77. Codec ID/Info                            : UTF-8 Plain Text
  78. Language                                 : Italian
  79. Default                                  : No
  80. Forced                                   : No
  81. Statistics Tags Issue                    : mkvmerge v8.3.0 ('Over the Horizon') 64bit 2016-11-21 09:38:08 / mkvmerge v5.1.0 ('And so it goes') built on Feb  1 2012 11:32:58 2016-11-21 19:37:03
  82. FromStats_BitRate                        : 86
  83. FromStats_Duration                       : 01:30:33.679000000
  84. FromStats_FrameCount                     : 1502
  85. FromStats_StreamSize                     : 58792

  86. Text #3
  87. ID                                       : 5
  88. Format                                   : UTF-8
  89. Codec ID                                 : S_TEXT/UTF8
  90. Codec ID/Info                            : UTF-8 Plain Text
  91. Language                                 : German
  92. Default                                  : No
  93. Forced                                   : No
  94. Statistics Tags Issue                    : mkvmerge v8.3.0 ('Over the Horizon') 64bit 2016-11-21 09:38:08 / mkvmerge v5.1.0 ('And so it goes') built on Feb  1 2012 11:32:58 2016-11-21 19:37:03
  95. FromStats_BitRate                        : 86
  96. FromStats_Duration                       : 01:30:33.887000000
  97. FromStats_FrameCount                     : 1504
  98. FromStats_StreamSize                     : 58860

  99. Text #4
  100. ID                                       : 6
  101. Format                                   : UTF-8
  102. Codec ID                                 : S_TEXT/UTF8
  103. Codec ID/Info                            : UTF-8 Plain Text
  104. Language                                 : Spanish
  105. Default                                  : No
  106. Forced                                   : No
  107. Statistics Tags Issue                    : mkvmerge v8.3.0 ('Over the Horizon') 64bit 2016-11-21 09:38:08 / mkvmerge v5.1.0 ('And so it goes') built on Feb  1 2012 11:32:58 2016-11-21 19:37:03
  108. FromStats_BitRate                        : 85
  109. FromStats_Duration                       : 01:30:27.130000000
  110. FromStats_FrameCount                     : 1722
  111. FromStats_StreamSize                     : 58053

  112. Text #5
  113. ID                                       : 7
  114. Format                                   : UTF-8
  115. Codec ID                                 : S_TEXT/UTF8
  116. Codec ID/Info                            : UTF-8 Plain Text
  117. Language                                 : Portuguese
  118. Default                                  : No
  119. Forced                                   : No
  120. Statistics Tags Issue                    : mkvmerge v8.3.0 ('Over the Horizon') 64bit 2016-11-21 09:38:08 / mkvmerge v5.1.0 ('And so it goes') built on Feb  1 2012 11:32:58 2016-11-21 19:37:03
  121. FromStats_BitRate                        : 83
  122. FromStats_Duration                       : 01:30:34.763000000
  123. FromStats_FrameCount                     : 1500
  124. FromStats_StreamSize                     : 56898
复制代码

十一月法则 November.Rule.2015.1080p.NF.WEBRip.DD5.1.x264-PiA 6.12GB-2.png 十一月法则 November.Rule.2015.1080p.NF.WEBRip.DD5.1.x264-PiA 6.12GB-3.png 十一月法则 November.Rule.2015.1080p.NF.WEBRip.DD5.1.x264-PiA 6.12GB-4.png 十一月法则 November.Rule.2015.1080p.NF.WEBRip.DD5.1.x264-PiA 6.12GB-5.png 十一月法则 November.Rule.2015.1080p.NF.WEBRip.DD5.1.x264-PiA 6.12GB-1.png 十一月法则 November.Rule.2015.1080p.NF.WEBRip.DD5.1.x264-PiA 6.12GB-7.png






回复

使用道具 举报

懒得打字嘛,点击右侧快捷回复 【右侧内容,后台自定义】
您需要登录后才可以回帖 登录 | 立即加入

本版积分规则

Archiver|小黑屋| 蓝光电影网 |网站地图

Copyright © 2021 Comsenz Inc. Powered by 蓝光电影网

蓝光电影网

本站内容由用户自主分享和转载自互联网,转载目的在于传递更多信息,并不代表本网赞同其观点和对其真实性负责。

如有侵权、违反国家法律政策行为,请联系我们,我们会第一时间及时清除和处理!

举报反馈邮箱:[email protected]

快速回复 返回顶部 返回列表