找回密码

蓝光电影网

查看: 135|回复: 0

[剧情] 已上漆的房子 A.Painted.House.2003.1080p.AMZN.WEBRip.DD2.0.x264-AJP69 6.80GB

[复制链接]
蓝光币
1020
发表于 2020-2-1 14:40:29 | 显示全部楼层 |阅读模式
已上漆的屋子 A.Painted.House.2003.1080p.AMZN.WEBRip.DD2.0.x264-AJP69 6.80GB-1.png

译  名 已上漆的屋子
片  名 A Painted House
年  代 2003
产  地 美国
类  别 剧情 / 家庭
语  言 英语
上映日期 2003-04-27(美国)
IMDb评分  6.5/10 from 902 users
IMDb链接  https://www.imdb.com/title/tt0362001
豆瓣评分 0/10 from 0 users
豆瓣链接 https://movie.douban.com/subject/2074896/
片  长 97分钟
导  演 阿方索·阿雷奥 Alfonso Arau
编  剧 约翰·格里森姆 John Grisham / Patrick Sheane Duncan
主  演 斯科特·格林 Scott Glenn
       阿里加·巴利吉斯 Arija Bareikis
       罗伯特·肖恩·莱纳德 Robert Sean Leonard
       梅林达·狄龙 Melinda Dillon
       罗根·勒曼 Logan Lerman


标  签 美国 | 电影 | JohnGrisham | 已下 | RSL | 格里森姆 | RobertSeanLeonard | 真實謊言

简  介  

  A young boy, his family, and the migrant workers they hire to work their cotton farm struggle against difficult odds to raise and sell the crop. Meanwhile, the boy dreams of living in better conditions. However, with this particularly tough farming season, the boy learns that his challenges guide him in discovering who he really is.
  1. Video
  2. ID                                       : 1
  3. Format                                   : AVC
  4. Format/Info                              : Advanced Video Codec
  5. Format profile                           : [email protected]
  6. Format settings                          : CABAC / 4 Ref Frames
  7. Format settings, CABAC                   : Yes
  8. Format settings, Reference frames        : 4 frames
  9. Codec ID                                 : V_MPEG4/ISO/AVC
  10. Duration                                 : 1 h 37 min
  11. Bit rate mode                            : Variable
  12. Bit rate                                 : 9 734 kb/s
  13. Maximum bit rate                         : 15.0 Mb/s
  14. Width                                    : 1 920 pixels
  15. Height                                   : 1 080 pixels
  16. Display aspect ratio                     : 16:9
  17. Frame rate mode                          : Constant
  18. Frame rate                               : 23.976 (24000/1001) FPS
  19. Color space                              : YUV
  20. Chroma subsampling                       : 4:2:0
  21. Bit depth                                : 8 bits
  22. Scan type                                : Progressive
  23. Bits/(Pixel*Frame)                       : 0.196
  24. Stream size                              : 6.64 GiB (98%)
  25. Default                                  : Yes
  26. Forced                                   : No
  27. Color range                              : Limited
  28. Color primaries                          : BT.709
  29. Transfer characteristics                 : BT.709
  30. Matrix coefficients                      : BT.709

  31. Audio
  32. ID                                       : 2
  33. Format                                   : E-AC-3
  34. Format/Info                              : Enhanced AC-3
  35. Commercial name                          : Dolby Digital Plus
  36. Codec ID                                 : A_EAC3
  37. Duration                                 : 1 h 37 min
  38. Bit rate mode                            : Constant
  39. Bit rate                                 : 224 kb/s
  40. Channel(s)                               : 2 channels
  41. Channel layout                           : L R
  42. Sampling rate                            : 48.0 kHz
  43. Frame rate                               : 31.250 FPS (1536 SPF)
  44. Compression mode                         : Lossy
  45. Stream size                              : 157 MiB (2%)
  46. Language                                 : English
  47. Service kind                             : Complete Main
  48. Default                                  : Yes
  49. Forced                                   : No

  50. Text
  51. ID                                       : 3
  52. Format                                   : UTF-8
  53. Codec ID                                 : S_TEXT/UTF8
  54. Codec ID/Info                            : UTF-8 Plain Text
  55. Duration                                 : 1 h 36 min
  56. Bit rate                                 : 54 b/s
  57. Count of elements                        : 1512
  58. Stream size                              : 38.9 KiB (0%)
  59. Title                                    : SDH
  60. Language                                 : English
  61. Default                                  : No
  62. Forced                                   : No
复制代码

已上漆的屋子 A.Painted.House.2003.1080p.AMZN.WEBRip.DD2.0.x264-AJP69 6.80GB-2.png 已上漆的屋子 A.Painted.House.2003.1080p.AMZN.WEBRip.DD2.0.x264-AJP69 6.80GB-3.png 已上漆的屋子 A.Painted.House.2003.1080p.AMZN.WEBRip.DD2.0.x264-AJP69 6.80GB-4.png






回复

使用道具 举报

懒得打字嘛,点击右侧快捷回复 【右侧内容,后台自定义】
您需要登录后才可以回帖 登录 | 立即加入

本版积分规则

Archiver|小黑屋| 蓝光电影网 |网站地图

Copyright © 2021 Comsenz Inc. Powered by 蓝光电影网

蓝光电影网

本站内容由用户自主分享和转载自互联网,转载目的在于传递更多信息,并不代表本网赞同其观点和对其真实性负责。

如有侵权、违反国家法律政策行为,请联系我们,我们会第一时间及时清除和处理!

举报反馈邮箱:[email protected]

快速回复 返回顶部 返回列表