找回密码

蓝光电影网

查看: 198|回复: 0

[惊悚] 恐怖天使 Terrible.Angels.2012.1080p.WEB-DL.AAC2.0.H264-FGT 3.41GB

[复制链接]
蓝光币
886
发表于 2020-2-1 14:43:46 | 显示全部楼层 |阅读模式
可骇天使 Terrible.Angels.2012.1080p.WEB-DL.AAC2.0.H264-FGT 3.41GB-1.png

译  名 可骇天使
片  名 Terrible Angels
年  代 2013
产  地 美国
类  别 惊悚
语  言 英语
上映日期 2013-10-15
IMDb评分  6.2/10 from 683 users
IMDb链接  https://www.imdb.com/title/tt1727362
豆瓣评分 0/10 from 0 users
豆瓣链接 https://movie.douban.com/subject/25757999/
片  长 94分钟
导  演 Anthony Pierce
编  剧 Anthony Pierce
主  演 Una Jo Blade
       迈克尔·马德森 Michael Madsen
       Hank Cartwright
       Meiko Mitchell
       Adrienne Vogel
       Barrie Wild
       Alicia Rose
       Nouel Riel
       George Castillo
       Rick Lord
       Lanie Hoyo
       Shuhe Hawkins
       Joshua St. James
       Geno Romo
       Spencer Montoya


标  签 可骇 | 迈克尔·马德森 | 美国,鬼魂哥佑佑 | 美国电影 | 美国 | 惊悚

简  介  

  Detective Ben Nolan is sent to investigate the story of a convicted prostitute and known drug dealer Linda Grossel. Linda explains that she was kidnapped and held captive for weeks. As the investigation unfolds, Linda's sanity is put to question, leaving Ben to decide whether to go on with the investigation or leave Linda to the fate of the prison system.
  1. Video
  2. ID                                       : 1
  3. Format                                   : AVC
  4. Format/Info                              : Advanced Video Codec
  5. Format profile                           : [email protected]
  6. Format settings                          : CABAC / 4 Ref Frames
  7. Format settings, CABAC                   : Yes
  8. Format settings, Reference frames        : 4 frames
  9. Codec ID                                 : V_MPEG4/ISO/AVC
  10. Duration                                 : 1 h 34 min
  11. Bit rate                                 : 5 041 kb/s
  12. Width                                    : 1 920 pixels
  13. Height                                   : 1 080 pixels
  14. Display aspect ratio                     : 16:9
  15. Frame rate mode                          : Constant
  16. Frame rate                               : 23.976 (24000/1001) FPS
  17. Color space                              : YUV
  18. Chroma subsampling                       : 4:2:0
  19. Bit depth                                : 8 bits
  20. Scan type                                : Progressive
  21. Bits/(Pixel*Frame)                       : 0.101
  22. Stream size                              : 3.32 GiB (97%)
  23. Title                                    : Terrible.Angels.2013.1080p.WEB-DL.AAC.2.0.H.264-FGT
  24. Default                                  : Yes
  25. Forced                                   : No
  26. Color range                              : Limited
  27. Color primaries                          : BT.709
  28. Transfer characteristics                 : BT.709
  29. Matrix coefficients                      : BT.709

  30. Audio
  31. ID                                       : 2
  32. Format                                   : AAC LC
  33. Format/Info                              : Advanced Audio Codec Low Complexity
  34. Codec ID                                 : A_AAC-2
  35. Duration                                 : 1 h 34 min
  36. Bit rate                                 : 128 kb/s
  37. Channel(s)                               : 2 channels
  38. Channel layout                           : L R
  39. Sampling rate                            : 44.1 kHz
  40. Frame rate                               : 43.066 FPS (1024 SPF)
  41. Compression mode                         : Lossy
  42. Stream size                              : 86.3 MiB (2%)
  43. Title                                    : Terrible.Angels.2013.1080p.WEB-DL.AAC.2.0.H.264-FGT
  44. Language                                 : English
  45. Default                                  : Yes
  46. Forced                                   : No

  47. Text
  48. ID                                       : 3
  49. Format                                   : UTF-8
  50. Codec ID                                 : S_TEXT/UTF8
  51. Codec ID/Info                            : UTF-8 Plain Text
  52. Duration                                 : 1 h 29 min
  53. Bit rate                                 : 45 b/s
  54. Count of elements                        : 1652
  55. Stream size                              : 29.9 KiB (0%)
  56. Language                                 : English
  57. Default                                  : Yes
  58. Forced                                   : No

  59. Menu
  60. 00:00:00.000                             : en:Chapter 1
  61. 00:09:38.578                             : en:Chapter 2
  62. 00:18:35.114                             : en:Chapter 3
  63. 00:29:50.789                             : en:Chapter 4
  64. 00:40:46.444                             : en:Chapter 5
  65. 00:51:16.073                             : en:Chapter 6
  66. 01:01:13.670                             : en:Chapter 7
  67. 01:10:32.228                             : en:Chapter 8
  68. 01:19:57.793                             : en:Chapter 9
  69. 01:26:17.172                             : en:Chapter 10
复制代码

可骇天使 Terrible.Angels.2012.1080p.WEB-DL.AAC2.0.H264-FGT 3.41GB-2.png 可骇天使 Terrible.Angels.2012.1080p.WEB-DL.AAC2.0.H264-FGT 3.41GB-3.png 可骇天使 Terrible.Angels.2012.1080p.WEB-DL.AAC2.0.H264-FGT 3.41GB-4.png






回复

使用道具 举报

懒得打字嘛,点击右侧快捷回复 【右侧内容,后台自定义】
您需要登录后才可以回帖 登录 | 立即加入

本版积分规则

Archiver|小黑屋| 蓝光电影网 |网站地图

Copyright © 2021 Comsenz Inc. Powered by 蓝光电影网

蓝光电影网

本站内容由用户自主分享和转载自互联网,转载目的在于传递更多信息,并不代表本网赞同其观点和对其真实性负责。

如有侵权、违反国家法律政策行为,请联系我们,我们会第一时间及时清除和处理!

举报反馈邮箱:[email protected]

快速回复 返回顶部 返回列表