找回密码

蓝光电影网

查看: 165|回复: 0

[剧情] 抹黑 Paint.It.Black.2016.1080p.WEB-DL.DD5.1.H264-FGT 3.35GB

[复制链接]
蓝光币
886
发表于 2020-2-1 14:54:18 | 显示全部楼层 |阅读模式
抹黑 Paint.It.Black.2016.1080p.WEB-DL.DD5.1.H264-FGT 3.35GB-1.png

译  名 抹黑
片  名 Paint It Black
年  代 2016
产  地 美国
类  别 剧情
语  言 英语
上映日期 2016-06-03
IMDb评分  5.6/10 from 616 users
IMDb链接  https://www.imdb.com/title/tt1472460
豆瓣评分 0/10 from 0 users
豆瓣链接 https://movie.douban.com/subject/3871851/
片  长 96分钟
导  演 Amber Tamblyn
编  剧 Ed Dougherty / Amber Tamblyn
主  演 Alia Shawkat
       Janet McTeer
       Alfred Molina
       Nancy Kwan
       Emily Rios
       Rhys Wakefield
       Chris Palko
       Mish Way


标  签 美国电影 | JanetMcTeer | 剧情 | 露点 | 美国 | 春季到了 | 长大 | X

简  介  

  What happens to a dream when the dreamer is gone? PAINT IT BLACK is the story of the aftermath of Michael's death, and Josie's struggle to hold onto the true world he shared with her. As Josie searches for the key to understanding his death, she finds herself both repelled and attracted to Michael's pianist mother, Meredith, who holds Josie responsible for her son's torment. Soon, the two women find themselves drawn into a twisted relationship reflecting equal parts distrust and blind need.
  Written by Amber Tamblyn
  1. Video
  2. ID                                       : 1
  3. Format                                   : AVC
  4. Format/Info                              : Advanced Video Codec
  5. Format profile                           : [email protected]
  6. Format settings                          : CABAC / 5 Ref Frames
  7. Format settings, CABAC                   : Yes
  8. Format settings, Reference frames        : 5 frames
  9. Codec ID                                 : V_MPEG4/ISO/AVC
  10. Duration                                 : 1 h 36 min
  11. Bit rate                                 : 4 508 kb/s
  12. Width                                    : 1 912 pixels
  13. Height                                   : 792 pixels
  14. Display aspect ratio                     : 2.40:1
  15. Frame rate mode                          : Constant
  16. Frame rate                               : 23.976 (24000/1001) FPS
  17. Color space                              : YUV
  18. Chroma subsampling                       : 4:2:0
  19. Bit depth                                : 8 bits
  20. Scan type                                : Progressive
  21. Bits/(Pixel*Frame)                       : 0.124
  22. Stream size                              : 3.03 GiB (90%)
  23. Title                                    : Paint.It.Black.2016.1080p.WEB-DL.DD5.1.H264-FGT
  24. Language                                 : English
  25. Default                                  : Yes
  26. Forced                                   : No
  27. Color range                              : Limited
  28. Color primaries                          : BT.709
  29. Transfer characteristics                 : BT.709
  30. Matrix coefficients                      : BT.709

  31. Audio
  32. ID                                       : 2
  33. Format                                   : AC-3
  34. Format/Info                              : Audio Coding 3
  35. Commercial name                          : Dolby Digital
  36. Codec ID                                 : A_AC3
  37. Duration                                 : 1 h 36 min
  38. Bit rate mode                            : Constant
  39. Bit rate                                 : 384 kb/s
  40. Channel(s)                               : 6 channels
  41. Channel layout                           : L R C LFE Ls Rs
  42. Sampling rate                            : 48.0 kHz
  43. Frame rate                               : 31.250 FPS (1536 SPF)
  44. Compression mode                         : Lossy
  45. Stream size                              : 264 MiB (8%)
  46. Title                                    : Paint.It.Black.2016.1080p.WEB-DL.DD5.1.H264-FGT
  47. Language                                 : English
  48. Service kind                             : Complete Main
  49. Default                                  : Yes
  50. Forced                                   : No

  51. Text
  52. ID                                       : 3
  53. Format                                   : UTF-8
  54. Codec ID                                 : S_TEXT/UTF8
  55. Codec ID/Info                            : UTF-8 Plain Text
  56. Language                                 : English
  57. Default                                  : Yes
  58. Forced                                   : No

  59. Menu
  60. 00:00:00.000                             : en:1
  61. 00:01:14.000                             : en:2
  62. 00:16:13.000                             : en:3
  63. 00:25:31.000                             : en:4
  64. 00:35:58.000                             : en:5
  65. 00:46:09.000                             : en:6
  66. 00:56:52.000                             : en:7
  67. 01:08:07.000                             : en:8
  68. 01:20:08.000                             : en:9
  69. 01:31:24.000                             : en:10
复制代码

抹黑 Paint.It.Black.2016.1080p.WEB-DL.DD5.1.H264-FGT 3.35GB-2.png 抹黑 Paint.It.Black.2016.1080p.WEB-DL.DD5.1.H264-FGT 3.35GB-3.png 抹黑 Paint.It.Black.2016.1080p.WEB-DL.DD5.1.H264-FGT 3.35GB-4.png 抹黑 Paint.It.Black.2016.1080p.WEB-DL.DD5.1.H264-FGT 3.35GB-1.png 抹黑 Paint.It.Black.2016.1080p.WEB-DL.DD5.1.H264-FGT 3.35GB-6.png 抹黑 Paint.It.Black.2016.1080p.WEB-DL.DD5.1.H264-FGT 3.35GB-7.png






回复

使用道具 举报

懒得打字嘛,点击右侧快捷回复 【右侧内容,后台自定义】
您需要登录后才可以回帖 登录 | 立即加入

本版积分规则

Archiver|小黑屋| 蓝光电影网 |网站地图

Copyright © 2021 Comsenz Inc. Powered by 蓝光电影网

蓝光电影网

本站内容由用户自主分享和转载自互联网,转载目的在于传递更多信息,并不代表本网赞同其观点和对其真实性负责。

如有侵权、违反国家法律政策行为,请联系我们,我们会第一时间及时清除和处理!

举报反馈邮箱:[email protected]

快速回复 返回顶部 返回列表