找回密码

蓝光电影网

查看: 166|回复: 0

[剧情] 目的地:杜斯伯里 Destination.Dewsbury.2018.1080p.WEB-DL.DD5.1.H264-FGT 3.00GB

[复制链接]
蓝光币
1020
发表于 2020-2-1 14:58:31 | 显示全部楼层 |阅读模式
目标地:杜斯伯里 Destination.Dewsbury.2018.1080p.WEB-DL.DD5.1.H264-FGT 3.00GB-1.png

译  名 目标地:杜斯伯里
片  名 Destination: Dewsbury
年  代 2018
产  地 英国
类  别 剧情 / 笑剧
语  言 英语
上映日期 2018-04-29(Newport Beach International Film Festival) / 2019-03-01(英国)
IMDb评分  6.3/10 from 820 users
IMDb链接  https://www.imdb.com/title/tt5275128
豆瓣评分 0/10 from 0 users
豆瓣链接 https://movie.douban.com/subject/33403749/
片  长 86分钟
导  演 Jack Spring
编  剧 David J. Keogh / Jonathan Marks / Aaron Nelson / Jack Spring
主  演 Anna Dawson
       Richard Hazlehurst Mason
       Filip Mayer


标  签 2018 | 英国 | 喜感 | 笑剧 | 美国电影 | 收集大电影 | web | [歐美]

简  介  

  Back in the 80s, five friends cause raucous in their schooldays. Twenty years on and they've got jobs they don't want and wives who don't want them. The leader of the gang, Frankie, is now dying in Yorkshire. The others find out and they get together for one last sad, mad, bad road trip to Dewsbury, before it's all too late. Mix in a dollop of The Inbetweeners' intellectual wit, add a pinch of bromancing from The World's End, and then stir in a few ladles of The Hangover's vomit and you've got Destination: Dewsbury, destined to be one of 2018's funniest releases.
  1. Video
  2. ID                                       : 1
  3. Format                                   : AVC
  4. Format/Info                              : Advanced Video Codec
  5. Format profile                           : [email protected]
  6. Format settings                          : CABAC / 5 Ref Frames
  7. Format settings, CABAC                   : Yes
  8. Format settings, Reference frames        : 5 frames
  9. Codec ID                                 : V_MPEG4/ISO/AVC
  10. Duration                                 : 1 h 26 min
  11. Bit rate                                 : 4 547 kb/s
  12. Width                                    : 1 920 pixels
  13. Height                                   : 816 pixels
  14. Display aspect ratio                     : 2.35:1
  15. Frame rate mode                          : Constant
  16. Frame rate                               : 23.976 (24000/1001) FPS
  17. Color space                              : YUV
  18. Chroma subsampling                       : 4:2:0
  19. Bit depth                                : 8 bits
  20. Scan type                                : Progressive
  21. Bits/(Pixel*Frame)                       : 0.121
  22. Stream size                              : 2.76 GiB (92%)
  23. Title                                    : Destination.Dewsbury.2018.1080p.WEB-DL.DD5.1.H264-FGT
  24. Language                                 : English
  25. Default                                  : Yes
  26. Forced                                   : No
  27. Color range                              : Limited
  28. Color primaries                          : BT.709
  29. Transfer characteristics                 : BT.709
  30. Matrix coefficients                      : BT.709

  31. Audio
  32. ID                                       : 2
  33. Format                                   : AC-3
  34. Format/Info                              : Audio Coding 3
  35. Commercial name                          : Dolby Digital
  36. Codec ID                                 : A_AC3
  37. Duration                                 : 1 h 26 min
  38. Bit rate mode                            : Constant
  39. Bit rate                                 : 384 kb/s
  40. Channel(s)                               : 6 channels
  41. Channel layout                           : L R C LFE Ls Rs
  42. Sampling rate                            : 48.0 kHz
  43. Frame rate                               : 31.250 FPS (1536 SPF)
  44. Compression mode                         : Lossy
  45. Stream size                              : 239 MiB (8%)
  46. Title                                    : Destination.Dewsbury.2018.1080p.WEB-DL.DD5.1.H264-FGT
  47. Language                                 : English
  48. Service kind                             : Complete Main
  49. Default                                  : Yes
  50. Forced                                   : No

  51. Text
  52. ID                                       : 3
  53. Format                                   : UTF-8
  54. Codec ID                                 : S_TEXT/UTF8
  55. Codec ID/Info                            : UTF-8 Plain Text
  56. Duration                                 : 1 h 26 min
  57. Bit rate                                 : 101 b/s
  58. Count of elements                        : 1892
  59. Stream size                              : 64.2 KiB (0%)
  60. Language                                 : English
  61. Default                                  : Yes
  62. Forced                                   : No

  63. Menu
  64. 00:00:00.000                             : en:1
  65. 00:15:00.000                             : en:2
  66. 00:30:00.000                             : en:3
  67. 00:45:00.000                             : en:4
  68. 01:00:00.000                             : en:5
  69. 01:15:00.000                             : en:6
复制代码

目标地:杜斯伯里 Destination.Dewsbury.2018.1080p.WEB-DL.DD5.1.H264-FGT 3.00GB-2.png 目标地:杜斯伯里 Destination.Dewsbury.2018.1080p.WEB-DL.DD5.1.H264-FGT 3.00GB-3.png 目标地:杜斯伯里 Destination.Dewsbury.2018.1080p.WEB-DL.DD5.1.H264-FGT 3.00GB-4.png






回复

使用道具 举报

懒得打字嘛,点击右侧快捷回复 【右侧内容,后台自定义】
您需要登录后才可以回帖 登录 | 立即加入

本版积分规则

Archiver|小黑屋| 蓝光电影网 |网站地图

Copyright © 2021 Comsenz Inc. Powered by 蓝光电影网

蓝光电影网

本站内容由用户自主分享和转载自互联网,转载目的在于传递更多信息,并不代表本网赞同其观点和对其真实性负责。

如有侵权、违反国家法律政策行为,请联系我们,我们会第一时间及时清除和处理!

举报反馈邮箱:[email protected]

快速回复 返回顶部 返回列表