找回密码

蓝光电影网

查看: 703|回复: 3

[爱情] 戴维克罗的恋爱和魔法/MIRACLE(ミラクル)デビクロくんの恋と魔法 Miracle.Devil.Claus.Love.and.Magic.2014.JAPANESE.1080p.BluRay.x264.DTS-iKiW 14.08GB

[复制链接]
蓝光币
886
发表于 2020-2-1 15:13:47 | 显示全部楼层 |阅读模式
戴维克罗的恋爱和魔法/MIRACLE(ミラクル)デビクロくんの恋と魔法 Miracle.Devil.Claus.Love.and.Magic.2014.JAPANESE.1080p.BluRay.x264.DTS-iKiW 14.08GB-1.png

译  名 戴维克罗的恋爱和魔法 / MIRACLE(ミラクル)デビクロくんの恋と魔法
片  名 MIRACLEデビクロくんの恋と魔法
年  代 2014
产  地 日本
类  别 恋爱
语  言 日语
上映日期 2014-11-22(日本)
IMDb评分  6.1/10 from 75 users
IMDb链接  https://www.imdb.com/title/tt3422622
豆瓣评分 6.0/10 from 3043 users
豆瓣链接 https://movie.douban.com/subject/25799040/
片  长 115分钟
导  演 犬童一心 Isshin Inudou
编  剧 菅野友惠 Tomoe Kanno / 中村航
主  演 相叶雅纪 Masaki Aiba
       荣仓奈奈 Nana Eikura
       韩孝珠 Hyo-ju Han
       生田斗真 T?ma Ikuta
       小市慢太郎 Mantar? Koichi
       渡边真起子 Makiko Watanabe
       塚地武雅 Muga Tsukaji
       岸井雪乃 Yukino Kishii
       市川实和子 Miwako Ichikawa
       温水洋一 Y?ichi Nukumizu
       クリス?ペプラー
       剧团一人 Gekidan Hitori


标  签 生田斗真 | 日本 | 日本电影 | 相葉雅紀 | 2014 | 日影 | 恋爱 | 相叶雅纪

简  介  

  在一间书店打工的青年山本光(相叶雅纪 饰)和经营钢铁厂的高桥杏奈(荣仓奈奈 饰)是从小玩在一路的青梅竹马。木讷的山本创作了名为戴维克罗(剧团一人 配音)的漫画形象,虽然奋力笔耕,却迟迟未能著名。在圣诞节行将到来的日子里,一向胡想相逢梦中情人的山本偶遇拿过很多国际大奖的灯光设想师泰素妍(韩孝珠 饰),他绝不粉饰地将心中高兴告诉杏奈,但是并未发觉好友且喜且忧的复杂心情。在杏奈的撮合下,山本得以有机遇和素妍打仗交换,与此同时,他还重遇在漫画界风头正劲的大学同学北山一路(生田斗真 饰)。四小我奇妙的人缘,经过戴维克罗之手毗连在了一路。
  本片按照中村航的同名小说改编。
  1. Video
  2. ID                                       : 1
  3. Format                                   : AVC
  4. Format/Info                              : Advanced Video Codec
  5. Format profile                           : [email protected]
  6. Format settings                          : CABAC / 4 Ref Frames
  7. Format settings, CABAC                   : Yes
  8. Format settings, Reference frames        : 4 frames
  9. Codec ID                                 : V_MPEG4/ISO/AVC
  10. Duration                                 : 1 h 54 min
  11. Bit rate                                 : 16.1 Mb/s
  12. Nominal bit rate                         : 14.8 Mb/s
  13. Width                                    : 1 920 pixels
  14. Height                                   : 1 036 pixels
  15. Display aspect ratio                     : 1.85:1
  16. Frame rate mode                          : Constant
  17. Frame rate                               : 23.976 (24000/1001) FPS
  18. Color space                              : YUV
  19. Chroma subsampling                       : 4:2:0
  20. Bit depth                                : 8 bits
  21. Scan type                                : Progressive
  22. Bits/(Pixel*Frame)                       : 0.338
  23. Stream size                              : 12.9 GiB (91%)
  24. Writing library                          : x264 core 129 r2245+704+36 8e61944 tMod+MixAQ [[email protected]:2:0 X86_64]
  25. Encoding settings                        : cabac=1 / ref=4 / deblock=1:-3:-3 / analyse=0x3:0x133 / me=umh / subme=11 / psy=1 / fade_compensate=0.00 / psy_rd=1.05:0.10 / mixed_ref=1 / me_range=64 / chroma_me=1 / trellis=2 / 8x8dct=1 / cqm=0 / deadzone=21,11 / fast_pskip=0 / chroma_qp_offset=-3 / threads=18 / lookahead_threads=3 / sliced_threads=0 / nr=0 / decimate=1 / interlaced=0 / bluray_compat=0 / constrained_intra=0 / fgo=0 / bframes=10 / b_pyramid=2 / b_adapt=2 / b_bias=0 / direct=3 / weightb=1 / open_gop=0 / weightp=2 / keyint=250 / keyint_min=21 / scenecut=40 / intra_refresh=0 / rc_lookahead=50 / rc=2pass / mbtree=1 / bitrate=14782 / ratetol=1.0 / qcomp=0.70 / qpmin=0 / qpmax=69 / qpstep=4 / cplxblur=20.0 / qblur=0.5 / ip_ratio=1.40 / aq=1 / aq-strength=0.85 / aq-sensitivity=10.00 / aq-ifactor=1.00 / aq-pfactor=1.00 / aq-bfactor=1.00 / aq2=0
  26. Language                                 : Japanese
  27. Default                                  : Yes
  28. Forced                                   : No
  29. Color range                              : Limited
  30. Matrix coefficients                      : BT.709

  31. Audio
  32. ID                                       : 2
  33. Format                                   : DTS
  34. Format/Info                              : Digital Theater Systems
  35. Codec ID                                 : A_DTS
  36. Duration                                 : 1 h 54 min
  37. Bit rate mode                            : Constant
  38. Bit rate                                 : 1 509 kb/s
  39. Channel(s)                               : 6 channels
  40. Channel layout                           : C L R Ls Rs LFE
  41. Sampling rate                            : 48.0 kHz
  42. Frame rate                               : 93.750 FPS (512 SPF)
  43. Bit depth                                : 16 bits
  44. Compression mode                         : Lossy
  45. Stream size                              : 1.20 GiB (9%)
  46. Language                                 : Japanese
  47. Default                                  : Yes
  48. Forced                                   : No

  49. Text #1
  50. ID                                       : 3
  51. Format                                   : UTF-8
  52. Codec ID                                 : S_TEXT/UTF8
  53. Codec ID/Info                            : UTF-8 Plain Text
  54. Duration                                 : 1 h 47 min
  55. Bit rate                                 : 36 b/s
  56. Count of elements                        : 1028
  57. Stream size                              : 28.8 KiB (0%)
  58. Language                                 : English
  59. Default                                  : Yes
  60. Forced                                   : No

  61. Text #2
  62. ID                                       : 4
  63. Format                                   : UTF-8
  64. Codec ID                                 : S_TEXT/UTF8
  65. Codec ID/Info                            : UTF-8 Plain Text
  66. Duration                                 : 1 h 47 min
  67. Bit rate                                 : 26 b/s
  68. Count of elements                        : 924
  69. Stream size                              : 20.8 KiB (0%)
  70. Title                                    : Simplified
  71. Language                                 : Chinese
  72. Default                                  : No
  73. Forced                                   : No

  74. Text #3
  75. ID                                       : 5
  76. Format                                   : UTF-8
  77. Codec ID                                 : S_TEXT/UTF8
  78. Codec ID/Info                            : UTF-8 Plain Text
  79. Duration                                 : 1 h 47 min
  80. Bit rate                                 : 26 b/s
  81. Count of elements                        : 924
  82. Stream size                              : 20.8 KiB (0%)
  83. Title                                    : Traditional
  84. Language                                 : Chinese
  85. Default                                  : No
  86. Forced                                   : No

  87. Menu
  88. 00:00:00.000                             : en:00:00:00.000
  89. 00:06:11.079                             : en:00:06:11.079
  90. 00:10:58.741                             : en:00:10:58.741
  91. 00:14:54.518                             : en:00:14:54.518
  92. 00:20:12.836                             : en:00:20:12.836
  93. 00:23:35.330                             : en:00:23:35.330
  94. 00:27:40.492                             : en:00:27:40.492
  95. 00:31:05.029                             : en:00:31:05.029
  96. 00:39:43.089                             : en:00:39:43.089
  97. 00:43:51.378                             : en:00:43:51.378
  98. 00:49:44.022                             : en:00:49:44.022
  99. 00:52:15.841                             : en:00:52:15.841
  100. 01:02:02.552                             : en:01:02:02.552
  101. 01:06:30.361                             : en:01:06:30.361
  102. 01:12:17.207                             : en:01:12:17.207
  103. 01:15:43.497                             : en:01:15:43.497
  104. 01:21:37.392                             : en:01:21:37.392
  105. 01:27:29.369                             : en:01:27:29.369
  106. 01:31:38.743                             : en:01:31:38.743
  107. 01:39:13.948                             : en:01:39:13.948
  108. 01:43:56.313                             : en:01:43:56.313
  109. 01:49:29.688                             : en:01:49:29.688
  110. 01:54:16.850                             : en:01:54:16.850
复制代码

戴维克罗的恋爱和魔法/MIRACLE(ミラクル)デビクロくんの恋と魔法 Miracle.Devil.Claus.Love.and.Magic.2014.JAPANESE.1080p.BluRay.x264.DTS-iKiW 14.08GB-2.png 戴维克罗的恋爱和魔法/MIRACLE(ミラクル)デビクロくんの恋と魔法 Miracle.Devil.Claus.Love.and.Magic.2014.JAPANESE.1080p.BluRay.x264.DTS-iKiW 14.08GB-3.png 戴维克罗的恋爱和魔法/MIRACLE(ミラクル)デビクロくんの恋と魔法 Miracle.Devil.Claus.Love.and.Magic.2014.JAPANESE.1080p.BluRay.x264.DTS-iKiW 14.08GB-4.png






回复

使用道具 举报

蓝光币
2032
发表于 2020-6-23 23:47:02 | 显示全部楼层
感谢楼主分享
回复 支持 反对

使用道具 举报

懒得打字嘛,点击右侧快捷回复 【右侧内容,后台自定义】
您需要登录后才可以回帖 登录 | 立即加入

本版积分规则

Archiver|小黑屋| 蓝光电影网 |网站地图

Copyright © 2021 Comsenz Inc. Powered by 蓝光电影网

蓝光电影网

本站内容由用户自主分享和转载自互联网,转载目的在于传递更多信息,并不代表本网赞同其观点和对其真实性负责。

如有侵权、违反国家法律政策行为,请联系我们,我们会第一时间及时清除和处理!

举报反馈邮箱:[email protected]

快速回复 返回顶部 返回列表