找回密码

蓝光电影网

查看: 210|回复: 0

[恐怖] 千万别睡着/睡眠状态 Dont.Sleep.2017.1080p.WEB-DL.DD5.1.H264-FGT 3.29GB

[复制链接]
蓝光币
1022
发表于 2020-2-1 15:28:54 | 显示全部楼层 |阅读模式
万万别睡着/就寝状态 Dont.Sleep.2017.1080p.WEB-DL.DD5.1.H264-FGT 3.29GB-1.png

译  名 万万别睡着 / 就寝状态
片  名 Don't Sleep
年  代 2017
产  地 美国
类  别 可骇
语  言 英语
上映日期 2017-09-29(美国)
IMDb评分  3.3/10 from 934 users
IMDb链接  https://www.imdb.com/title/tt4329806
豆瓣评分 3.8/10 from 185 users
豆瓣链接 https://movie.douban.com/subject/27072841/
片  长 101分钟
导  演 Rick Bieber
编  剧 Rick Bieber
主  演 加利·艾尔维斯 Cary Elwes
       德瑞·德·玛泰 Drea de Matteo
       多米尼克·谢尔伍德 Dominic Sherwood


标  签 可骇 | 美国 | 惊悚 | 灵异 | 2017 | 美式可骇 | 美国电影 | 烂片

简  介  

  After moving into a cottage together, two young lovers confront the horrors of a forgotten childhood.
  1. Video
  2. ID                                       : 1
  3. Format                                   : AVC
  4. Format/Info                              : Advanced Video Codec
  5. Format profile                           : [email protected]
  6. Format settings                          : CABAC / 5 Ref Frames
  7. Format settings, CABAC                   : Yes
  8. Format settings, Reference frames        : 5 frames
  9. Codec ID                                 : V_MPEG4/ISO/AVC
  10. Duration                                 : 1 h 35 min
  11. Bit rate                                 : 4 569 kb/s
  12. Width                                    : 1 920 pixels
  13. Height                                   : 800 pixels
  14. Display aspect ratio                     : 2.40:1
  15. Frame rate mode                          : Constant
  16. Frame rate                               : 23.976 (23976/1000) FPS
  17. Color space                              : YUV
  18. Chroma subsampling                       : 4:2:0
  19. Bit depth                                : 8 bits
  20. Scan type                                : Progressive
  21. Bits/(Pixel*Frame)                       : 0.124
  22. Stream size                              : 3.04 GiB (92%)
  23. Title                                    : Dont.Sleep.2017.1080p.WEB-DL.DD5.1.H264-FGT
  24. Language                                 : English
  25. Default                                  : Yes
  26. Forced                                   : No
  27. Color range                              : Limited
  28. Color primaries                          : BT.709
  29. Transfer characteristics                 : BT.709
  30. Matrix coefficients                      : BT.709

  31. Audio
  32. ID                                       : 2
  33. Format                                   : AC-3
  34. Format/Info                              : Audio Coding 3
  35. Commercial name                          : Dolby Digital
  36. Codec ID                                 : A_AC3
  37. Duration                                 : 1 h 35 min
  38. Bit rate mode                            : Constant
  39. Bit rate                                 : 384 kb/s
  40. Channel(s)                               : 6 channels
  41. Channel layout                           : L R C LFE Ls Rs
  42. Sampling rate                            : 48.0 kHz
  43. Frame rate                               : 31.250 FPS (1536 SPF)
  44. Compression mode                         : Lossy
  45. Stream size                              : 261 MiB (8%)
  46. Title                                    : Dont.Sleep.2017.1080p.WEB-DL.DD5.1.H264-FGT
  47. Language                                 : English
  48. Service kind                             : Complete Main
  49. Default                                  : Yes
  50. Forced                                   : No

  51. Text
  52. ID                                       : 3
  53. Format                                   : UTF-8
  54. Codec ID                                 : S_TEXT/UTF8
  55. Codec ID/Info                            : UTF-8 Plain Text
  56. Duration                                 : 1 h 27 min
  57. Bit rate                                 : 44 b/s
  58. Count of elements                        : 1068
  59. Stream size                              : 28.4 KiB (0%)
  60. Language                                 : English
  61. Default                                  : Yes
  62. Forced                                   : No

  63. Menu
  64. 00:00:00.000                             : en:1
  65. 00:07:54.474                             : en:2
  66. 00:18:41.829                             : en:3
  67. 00:28:34.922                             : en:4
  68. 00:40:05.862                             : en:5
  69. 00:51:08.733                             : en:6
  70. 01:05:22.336                             : en:7
  71. 01:16:17.074                             : en:8
  72. 01:30:00.397                             : en:9
复制代码

万万别睡着/就寝状态 Dont.Sleep.2017.1080p.WEB-DL.DD5.1.H264-FGT 3.29GB-2.png 万万别睡着/就寝状态 Dont.Sleep.2017.1080p.WEB-DL.DD5.1.H264-FGT 3.29GB-3.png 万万别睡着/就寝状态 Dont.Sleep.2017.1080p.WEB-DL.DD5.1.H264-FGT 3.29GB-4.png 万万别睡着/就寝状态 Dont.Sleep.2017.1080p.WEB-DL.DD5.1.H264-FGT 3.29GB-5.png 万万别睡着/就寝状态 Dont.Sleep.2017.1080p.WEB-DL.DD5.1.H264-FGT 3.29GB-1.png 万万别睡着/就寝状态 Dont.Sleep.2017.1080p.WEB-DL.DD5.1.H264-FGT 3.29GB-7.png






回复

使用道具 举报

懒得打字嘛,点击右侧快捷回复 【右侧内容,后台自定义】
您需要登录后才可以回帖 登录 | 立即加入

本版积分规则

Archiver|小黑屋| 蓝光电影网 |网站地图

Copyright © 2021 Comsenz Inc. Powered by 蓝光电影网

蓝光电影网

本站内容由用户自主分享和转载自互联网,转载目的在于传递更多信息,并不代表本网赞同其观点和对其真实性负责。

如有侵权、违反国家法律政策行为,请联系我们,我们会第一时间及时清除和处理!

举报反馈邮箱:[email protected]

快速回复 返回顶部 返回列表