找回密码

蓝光电影网

查看: 165|回复: 0

[喜剧] 贞节之咬 Chastity.Bites.2013.1080p.WEB-DL.DD5.1.H264-PfXCPI 3.53GB

[复制链接]
蓝光币
886
发表于 2020-2-1 15:32:18 | 显示全部楼层 |阅读模式
贞节之咬 Chastity.Bites.2013.1080p.WEB-DL.DD5.1.H264-PfXCPI 3.53GB-1.png

译  名 贞节之咬
片  名 Chastity Bites
年  代 2013
产  地 美国
类  别 笑剧 / 可骇
语  言 英语
上映日期 2013(美国)
IMDb评分  4.6/10 from 850 users
IMDb链接  https://www.imdb.com/title/tt2145637
豆瓣评分 0/10 from 0 users
豆瓣链接 https://movie.douban.com/subject/10779902/
片  长 93分钟
导  演 John V. Knowles
编  剧 Lotti Pharriss Knowles
主  演 Allison Scagliotti
       Francia Raisa
       Louise Griffiths


标  签 美国 | 2013

简  介  

  暂无相关剧情先容
  1. Video
  2. ID                                       : 1
  3. Format                                   : AVC
  4. Format/Info                              : Advanced Video Codec
  5. Format profile                           : [email protected]
  6. Format settings                          : CABAC / 4 Ref Frames
  7. Format settings, CABAC                   : Yes
  8. Format settings, Reference frames        : 4 frames
  9. Codec ID                                 : V_MPEG4/ISO/AVC
  10. Duration                                 : 1 h 32 min
  11. Bit rate                                 : 5 067 kb/s
  12. Width                                    : 1 904 pixels
  13. Height                                   : 1 064 pixels
  14. Display aspect ratio                     : 16:9
  15. Frame rate mode                          : Constant
  16. Frame rate                               : 23.976 FPS
  17. Color space                              : YUV
  18. Chroma subsampling                       : 4:2:0
  19. Bit depth                                : 8 bits
  20. Scan type                                : Progressive
  21. Bits/(Pixel*Frame)                       : 0.104
  22. Stream size                              : 3.28 GiB (93%)
  23. Language                                 : English
  24. Default                                  : Yes
  25. Forced                                   : No
  26. Color range                              : Limited
  27. Color primaries                          : BT.709
  28. Transfer characteristics                 : BT.709
  29. Matrix coefficients                      : BT.709

  30. Audio
  31. ID                                       : 2
  32. Format                                   : AC-3
  33. Format/Info                              : Audio Coding 3
  34. Commercial name                          : Dolby Digital
  35. Codec ID                                 : A_AC3
  36. Duration                                 : 1 h 32 min
  37. Bit rate mode                            : Constant
  38. Bit rate                                 : 384 kb/s
  39. Channel(s)                               : 6 channels
  40. Channel layout                           : L R C LFE Ls Rs
  41. Sampling rate                            : 48.0 kHz
  42. Frame rate                               : 31.250 FPS (1536 SPF)
  43. Compression mode                         : Lossy
  44. Stream size                              : 255 MiB (7%)
  45. Language                                 : English
  46. Service kind                             : Complete Main
  47. Default                                  : Yes
  48. Forced                                   : No

  49. Text
  50. ID                                       : 3
  51. Format                                   : UTF-8
  52. Codec ID                                 : S_TEXT/UTF8
  53. Codec ID/Info                            : UTF-8 Plain Text
  54. Duration                                 : 1 h 32 min
  55. Bit rate                                 : 245 b/s
  56. Count of elements                        : 2460
  57. Stream size                              : 165 KiB (0%)
  58. Language                                 : English
  59. Default                                  : Yes
  60. Forced                                   : No

  61. Menu
  62. 00:00:00.000                             : en:Chapter 1
  63. 00:02:10.000                             : en:Chapter 2
  64. 00:12:26.000                             : en:Chapter 3
  65. 00:25:33.000                             : en:Chapter 4
  66. 00:36:40.000                             : en:Chapter 5
  67. 00:47:29.000                             : en:Chapter 6
  68. 00:57:04.000                             : en:Chapter 7
  69. 01:07:10.000                             : en:Chapter 8
  70. 01:12:02.000                             : en:Chapter 9
  71. 01:29:05.000                             : en:Chapter 10
复制代码

贞节之咬 Chastity.Bites.2013.1080p.WEB-DL.DD5.1.H264-PfXCPI 3.53GB-2.png 贞节之咬 Chastity.Bites.2013.1080p.WEB-DL.DD5.1.H264-PfXCPI 3.53GB-3.png 贞节之咬 Chastity.Bites.2013.1080p.WEB-DL.DD5.1.H264-PfXCPI 3.53GB-1.png






回复

使用道具 举报

懒得打字嘛,点击右侧快捷回复 【右侧内容,后台自定义】
您需要登录后才可以回帖 登录 | 立即加入

本版积分规则

Archiver|小黑屋| 蓝光电影网 |网站地图

Copyright © 2021 Comsenz Inc. Powered by 蓝光电影网

蓝光电影网

本站内容由用户自主分享和转载自互联网,转载目的在于传递更多信息,并不代表本网赞同其观点和对其真实性负责。

如有侵权、违反国家法律政策行为,请联系我们,我们会第一时间及时清除和处理!

举报反馈邮箱:[email protected]

快速回复 返回顶部 返回列表