找回密码

蓝光电影网

查看: 364|回复: 0

[剧情] 和你一样/超脫青春 As.You.Are.2016.1080p.WEB-DL.DD5.1.H264-FGT 3.61GB

[复制链接]
蓝光币
886
发表于 2020-2-1 15:35:08 | 显示全部楼层 |阅读模式
和你一样/超脫青春 As.You.Are.2016.1080p.WEB-DL.DD5.1.H264-FGT 3.61GB-1.png

译  名 和你一样 / 超脫青春(台)
片  名 As You Are
年  代 2016
产  地 美国
类  别 剧情 / 悬疑
语  言 英语
上映日期 2016-05-11(戛纳电影节)
IMDb评分  6.6/10 from 1860 users
IMDb链接  https://www.imdb.com/title/tt4444438
豆瓣评分 0/10 from 0 users
豆瓣链接 https://movie.douban.com/subject/26677761/
片  长 110分钟
导  演 Miles Joris-Peyrafitte
编  剧 Miles Joris-Peyrafitte / Madison Harrison
主  演 欧文·坎贝尔 Owen Campbell
       Charlie Heaton
       阿曼德拉·斯坦伯格  Amandla Stenberg
       John Scurti
       斯科特·科恩 Scott Cohen
       玛丽·斯图尔特·马斯特森 Mary Stuart Masterson


标  签 美国 | 青春 | 同性 | 2016 | 美國 | 压制 | 電影 | 同道

简  介  

  Set in the early 1990's, "As You Are" is the telling and retelling of a relationship between three teenagers as it traces the course of their friendship through a construction of disparate memories prompted by a police investigation.

获奖情况  

  第32届圣丹斯电影节(2016)
  评审团大奖 剧情片(提名)

  第64届圣塞巴斯蒂安国际电影节(2016)
  金贝壳奖(提名)
  1. Video
  2. ID                                       : 1
  3. Format                                   : AVC
  4. Format/Info                              : Advanced Video Codec
  5. Format profile                           : [email protected]
  6. Format settings                          : CABAC / 5 Ref Frames
  7. Format settings, CABAC                   : Yes
  8. Format settings, Reference frames        : 5 frames
  9. Codec ID                                 : V_MPEG4/ISO/AVC
  10. Duration                                 : 1 h 44 min
  11. Bit rate                                 : 4 451 kb/s
  12. Width                                    : 1 908 pixels
  13. Height                                   : 804 pixels
  14. Display aspect ratio                     : 2.40:1
  15. Frame rate mode                          : Constant
  16. Frame rate                               : 23.976 (24000/1001) FPS
  17. Color space                              : YUV
  18. Chroma subsampling                       : 4:2:0
  19. Bit depth                                : 8 bits
  20. Scan type                                : Progressive
  21. Bits/(Pixel*Frame)                       : 0.121
  22. Stream size                              : 3.25 GiB (90%)
  23. Title                                    : As.You.Are.2016.1080p.WEB-DL.DD5.1.H264-FGT
  24. Language                                 : English
  25. Default                                  : Yes
  26. Forced                                   : No
  27. Color range                              : Limited
  28. Color primaries                          : BT.709
  29. Transfer characteristics                 : BT.709
  30. Matrix coefficients                      : BT.709

  31. Audio
  32. ID                                       : 2
  33. Format                                   : AC-3
  34. Format/Info                              : Audio Coding 3
  35. Commercial name                          : Dolby Digital
  36. Codec ID                                 : A_AC3
  37. Duration                                 : 1 h 44 min
  38. Bit rate mode                            : Constant
  39. Bit rate                                 : 384 kb/s
  40. Channel(s)                               : 6 channels
  41. Channel layout                           : L R C LFE Ls Rs
  42. Sampling rate                            : 48.0 kHz
  43. Frame rate                               : 31.250 FPS (1536 SPF)
  44. Compression mode                         : Lossy
  45. Stream size                              : 288 MiB (8%)
  46. Title                                    : As.You.Are.2016.1080p.WEB-DL.DD5.1.H264-FGT
  47. Language                                 : English
  48. Service kind                             : Complete Main
  49. Default                                  : Yes
  50. Forced                                   : No

  51. Text
  52. ID                                       : 3
  53. Format                                   : UTF-8
  54. Codec ID                                 : S_TEXT/UTF8
  55. Codec ID/Info                            : UTF-8 Plain Text
  56. Language                                 : English
  57. Default                                  : Yes
  58. Forced                                   : No

  59. Menu
  60. 00:00:00.000                             : en:1
  61. 00:06:11.000                             : en:2
  62. 00:16:14.000                             : en:3
  63. 00:25:36.000                             : en:4
  64. 00:35:25.000                             : en:5
  65. 00:44:08.000                             : en:6
  66. 00:54:54.000                             : en:7
  67. 01:06:11.000                             : en:8
  68. 01:15:49.000                             : en:9
  69. 01:24:56.000                             : en:10
  70. 01:32:13.000                             : en:11
  71. 01:41:01.000                             : en:12
复制代码

和你一样/超脫青春 As.You.Are.2016.1080p.WEB-DL.DD5.1.H264-FGT 3.61GB-2.png 和你一样/超脫青春 As.You.Are.2016.1080p.WEB-DL.DD5.1.H264-FGT 3.61GB-3.png 和你一样/超脫青春 As.You.Are.2016.1080p.WEB-DL.DD5.1.H264-FGT 3.61GB-4.png 和你一样/超脫青春 As.You.Are.2016.1080p.WEB-DL.DD5.1.H264-FGT 3.61GB-5.png 和你一样/超脫青春 As.You.Are.2016.1080p.WEB-DL.DD5.1.H264-FGT 3.61GB-6.png 和你一样/超脫青春 As.You.Are.2016.1080p.WEB-DL.DD5.1.H264-FGT 3.61GB-7.png






回复

使用道具 举报

懒得打字嘛,点击右侧快捷回复 【右侧内容,后台自定义】
您需要登录后才可以回帖 登录 | 立即加入

本版积分规则

Archiver|小黑屋| 蓝光电影网 |网站地图

Copyright © 2021 Comsenz Inc. Powered by 蓝光电影网

蓝光电影网

本站内容由用户自主分享和转载自互联网,转载目的在于传递更多信息,并不代表本网赞同其观点和对其真实性负责。

如有侵权、违反国家法律政策行为,请联系我们,我们会第一时间及时清除和处理!

举报反馈邮箱:[email protected]

快速回复 返回顶部 返回列表