找回密码

蓝光电影网

查看: 415|回复: 1

[剧情] 黑天使/贝奈特案件 Black.Angel.1946.1080p.BluRay.x264.DTS-FGT 7.32GB

[复制链接]
蓝光币
1020
发表于 2020-2-1 17:41:52 | 显示全部楼层 |阅读模式
黑天使/贝奈特案件 Black.Angel.1946.1080p.BluRay.x264.DTS-FGT 7.32GB-1.png

译  名 黑天使 / 贝奈特案件
片  名 Black Angel
年  代 1946
产  地 美国
类  别 剧情 / 悬疑 / 音乐 / 犯罪 / 黑色电影
语  言 英语
上映日期 1946-09-26
IMDb评分  7.0/10 from 2394 users
IMDb链接  https://www.imdb.com/title/tt0038360
豆瓣评分 6.4/10 from 142 users
豆瓣链接 https://movie.douban.com/subject/1865017/
片  长 81 分钟
导  演 Roy William Neill
编  剧 Cornell Woolrich / Roy Chanslor
主  演 Dan Duryea
       June Vincent
       Peter Lorre
       Broderick Crawford
       Constance Dowling


标  签 美国 | 黑色电影 | 1940s | 犯罪 | 1946 | 悬疑 | 黑色 | 美国电影

简  介  

  悬疑的故事设想,偶合的爱情发生,令影片情节峰回路转!
  标致的夜总会女歌手梅维斯·马洛半夜时分在自己的房间里被人勒死,班尼特被人看见曾仓促从马洛的房间里走出来,警方遂将班尼特作为重点怀疑工具并予以追捕,班尼特的夫人凯瑟琳和马洛的丈夫马蒂以最好表演同伴身份为保护展开观察,在观察中马蒂对凯瑟琳有了好感,由此案情却有了起色……
  1. Video
  2. ID                                       : 1
  3. Format                                   : AVC
  4. Format/Info                              : Advanced Video Codec
  5. Format profile                           : [email protected]
  6. Format settings                          : CABAC / 4 Ref Frames
  7. Format settings, CABAC                   : Yes
  8. Format settings, Reference frames        : 4 frames
  9. Codec ID                                 : V_MPEG4/ISO/AVC
  10. Duration                                 : 1 h 20 min
  11. Bit rate                                 : 11.5 Mb/s
  12. Width                                    : 1 436 pixels
  13. Height                                   : 1 080 pixels
  14. Display aspect ratio                     : 4:3
  15. Frame rate mode                          : Constant
  16. Frame rate                               : 23.976 (24000/1001) FPS
  17. Color space                              : YUV
  18. Chroma subsampling                       : 4:2:0
  19. Bit depth                                : 8 bits
  20. Scan type                                : Progressive
  21. Bits/(Pixel*Frame)                       : 0.309
  22. Stream size                              : 6.47 GiB (88%)
  23. Title                                    : Black.Angel.1946.1080p.BluRay.x264.DTS-FGT
  24. Writing library                          : x264 core 148 r2795M aaa9aa8
  25. Encoding settings                        : cabac=1 / ref=4 / deblock=1:-2:-2 / analyse=0x3:0x113 / me=umh / subme=9 / psy=1 / psy_rd=1.00:0.15 / mixed_ref=1 / me_range=16 / chroma_me=1 / trellis=2 / 8x8dct=1 / cqm=0 / deadzone=21,11 / fast_pskip=1 / chroma_qp_offset=-3 / threads=72 / lookahead_threads=3 / sliced_threads=0 / nr=0 / decimate=1 / interlaced=0 / bluray_compat=0 / constrained_intra=0 / bframes=3 / b_pyramid=2 / b_adapt=1 / b_bias=0 / direct=3 / weightb=1 / open_gop=0 / weightp=2 / keyint=250 / keyint_min=25 / scenecut=40 / intra_refresh=0 / rc_lookahead=50 / rc=2pass / mbtree=1 / bitrate=11500 / ratetol=1.0 / qcomp=0.60 / qpmin=0 / qpmax=69 / qpstep=4 / cplxblur=20.0 / qblur=0.5 / vbv_maxrate=31250 / vbv_bufsize=31250 / nal_hrd=none / filler=0 / ip_ratio=1.40 / aq=1:1.00
  26. Language                                 : English
  27. Default                                  : Yes
  28. Forced                                   : No

  29. Audio
  30. ID                                       : 2
  31. Format                                   : DTS
  32. Format/Info                              : Digital Theater Systems
  33. Codec ID                                 : A_DTS
  34. Duration                                 : 1 h 20 min
  35. Bit rate mode                            : Constant
  36. Bit rate                                 : 1 509 kb/s
  37. Channel(s)                               : 1 channel
  38. Channel layout                           : C
  39. Sampling rate                            : 48.0 kHz
  40. Frame rate                               : 93.750 FPS (512 SPF)
  41. Bit depth                                : 16 bits
  42. Compression mode                         : Lossy
  43. Stream size                              : 869 MiB (12%)
  44. Title                                    : Black.Angel.1946.1080p.BluRay.x264.DTS-FGT
  45. Language                                 : English
  46. Default                                  : Yes
  47. Forced                                   : No

  48. Text
  49. ID                                       : 3
  50. Format                                   : UTF-8
  51. Codec ID                                 : S_TEXT/UTF8
  52. Codec ID/Info                            : UTF-8 Plain Text
  53. Duration                                 : 1 h 18 min
  54. Bit rate                                 : 51 b/s
  55. Count of elements                        : 848
  56. Stream size                              : 29.5 KiB (0%)
  57. Language                                 : English
  58. Default                                  : Yes
  59. Forced                                   : No

  60. Menu
  61. 00:00:00.000                             : en:Chapter 01
  62. 00:06:03.196                             : en:Chapter 02
  63. 00:14:22.987                             : en:Chapter 03
  64. 00:21:10.728                             : en:Chapter 04
  65. 00:26:36.220                             : en:Chapter 05
  66. 00:32:13.056                             : en:Chapter 06
  67. 00:40:30.511                             : en:Chapter 07
  68. 00:47:05.322                             : en:Chapter 08
  69. 00:54:40.360                             : en:Chapter 09
  70. 01:01:50.373                             : en:Chapter 10
  71. 01:06:28.860                             : en:Chapter 11
  72. 01:12:50.283                             : en:Chapter 12
复制代码

黑天使/贝奈特案件 Black.Angel.1946.1080p.BluRay.x264.DTS-FGT 7.32GB-2.png 黑天使/贝奈特案件 Black.Angel.1946.1080p.BluRay.x264.DTS-FGT 7.32GB-3.png 黑天使/贝奈特案件 Black.Angel.1946.1080p.BluRay.x264.DTS-FGT 7.32GB-4.png






回复

使用道具 举报

懒得打字嘛,点击右侧快捷回复 【右侧内容,后台自定义】
您需要登录后才可以回帖 登录 | 立即加入

本版积分规则

Archiver|小黑屋| 蓝光电影网 |网站地图

Copyright © 2021 Comsenz Inc. Powered by 蓝光电影网

蓝光电影网

本站内容由用户自主分享和转载自互联网,转载目的在于传递更多信息,并不代表本网赞同其观点和对其真实性负责。

如有侵权、违反国家法律政策行为,请联系我们,我们会第一时间及时清除和处理!

举报反馈邮箱:[email protected]

快速回复 返回顶部 返回列表