找回密码

蓝光电影网

查看: 601|回复: 1

[悬疑] 吓死杰西卡/吓人到死 Lets.Scare.Jessica.To.Death.1971.1080p.BluRay.x264.DTS-FGT 8.07GB

[复制链接]
蓝光币
1022
发表于 2020-2-1 17:42:55 | 显示全部楼层 |阅读模式
吓死杰西卡/吓人到死 Lets.Scare.Jessica.To.Death.1971.1080p.BluRay.x264.DTS-FGT 8.07GB-1.png

译  名 吓死杰西卡 / 吓人到死
片  名 Let's Scare Jessica to Death
年  代 1971
产  地 美国
类  别 悬疑 / 可骇
语  言 英语
上映日期 1971-08-06
IMDb评分  6.4/10 from 6485 users
IMDb链接  https://www.imdb.com/title/tt0067341
豆瓣评分 6.2/10 from 289 users
豆瓣链接 https://movie.douban.com/subject/1295645/
片  长 89 分钟
导  演 约翰·D·汉考克 John D. Hancock
编  剧 约翰·D·汉考克 John D. Hancock / Lee Kalcheim
主  演 佐拉·兰帕特 Zohra Lampert
       Barton Heyman
       Kevin O'Connor
       Gretchen Corbett


标  签 可骇 | 惊悚 | 美国 | 美国电影 | 悬疑 | 1970s | 1971 | 1970

简  介  

  刚刚从精神疗养院出院的杰西卡想要重新起头生活,她和丈夫以及一位好友搬到了一个老旧的乡下农场,在那边,他们相逢了一位寄住在那边的红发女孩,可是工作也随即变得诡异起来,由于这里恍如存在着某种危险而又奥秘的生物
  1. Video
  2. ID                                       : 1
  3. Format                                   : AVC
  4. Format/Info                              : Advanced Video Codec
  5. Format profile                           : [email protected]
  6. Format settings                          : CABAC / 4 Ref Frames
  7. Format settings, CABAC                   : Yes
  8. Format settings, Reference frames        : 4 frames
  9. Codec ID                                 : V_MPEG4/ISO/AVC
  10. Duration                                 : 1 h 28 min
  11. Bit rate                                 : 11.5 Mb/s
  12. Width                                    : 1 920 pixels
  13. Height                                   : 1 036 pixels
  14. Display aspect ratio                     : 1.85:1
  15. Frame rate mode                          : Constant
  16. Frame rate                               : 23.976 (24000/1001) FPS
  17. Color space                              : YUV
  18. Chroma subsampling                       : 4:2:0
  19. Bit depth                                : 8 bits
  20. Scan type                                : Progressive
  21. Bits/(Pixel*Frame)                       : 0.241
  22. Stream size                              : 7.13 GiB (88%)
  23. Title                                    : Lets.Scare.Jessica.To.Death.1971.1080p.BluRay.x264.DTS-FGT
  24. Writing library                          : x264 core 148 r2748 97eaef2
  25. Encoding settings                        : cabac=1 / ref=4 / deblock=1:-2:-2 / analyse=0x3:0x113 / me=umh / subme=9 / psy=1 / psy_rd=1.00:0.15 / mixed_ref=1 / me_range=16 / chroma_me=1 / trellis=2 / 8x8dct=1 / cqm=0 / deadzone=21,11 / fast_pskip=1 / chroma_qp_offset=-3 / threads=24 / lookahead_threads=3 / sliced_threads=0 / nr=0 / decimate=1 / interlaced=0 / bluray_compat=0 / constrained_intra=0 / bframes=3 / b_pyramid=2 / b_adapt=1 / b_bias=0 / direct=3 / weightb=1 / open_gop=0 / weightp=2 / keyint=250 / keyint_min=25 / scenecut=40 / intra_refresh=0 / rc_lookahead=50 / rc=2pass / mbtree=1 / bitrate=11500 / ratetol=1.0 / qcomp=0.60 / qpmin=0 / qpmax=69 / qpstep=4 / cplxblur=20.0 / qblur=0.5 / vbv_maxrate=31250 / vbv_bufsize=31250 / nal_hrd=none / filler=0 / ip_ratio=1.40 / aq=1:1.00
  26. Language                                 : English
  27. Default                                  : Yes
  28. Forced                                   : No

  29. Audio
  30. ID                                       : 2
  31. Format                                   : DTS
  32. Format/Info                              : Digital Theater Systems
  33. Codec ID                                 : A_DTS
  34. Duration                                 : 1 h 28 min
  35. Bit rate mode                            : Constant
  36. Bit rate                                 : 1 509 kb/s
  37. Channel(s)                               : 2 channels
  38. Channel layout                           : L R
  39. Sampling rate                            : 48.0 kHz
  40. Frame rate                               : 93.750 FPS (512 SPF)
  41. Bit depth                                : 24 bits
  42. Compression mode                         : Lossy
  43. Stream size                              : 958 MiB (12%)
  44. Title                                    : Lets.Scare.Jessica.To.Death.1971.1080p.BluRay.x264.DTS-FGT
  45. Language                                 : English
  46. Default                                  : Yes
  47. Forced                                   : No

  48. Text
  49. ID                                       : 3
  50. Format                                   : UTF-8
  51. Codec ID                                 : S_TEXT/UTF8
  52. Codec ID/Info                            : UTF-8 Plain Text
  53. Duration                                 : 1 h 27 min
  54. Bit rate                                 : 30 b/s
  55. Count of elements                        : 862
  56. Stream size                              : 19.3 KiB (0%)
  57. Language                                 : English
  58. Default                                  : Yes
  59. Forced                                   : No

  60. Menu
  61. 00:00:00.000                             : en:Starting Over
  62. 00:06:08.785                             : en:The House
  63. 00:12:03.097                             : en:Dinner With a Stranger
  64. 00:16:20.980                             : en:S??ance
  65. 00:24:05.945                             : en:Sick Again
  66. 00:31:16.958                             : en:Crazy Town
  67. 00:36:48.957                             : en:The Bishop Family Story
  68. 00:41:12.220                             : en:Something Strange
  69. 00:49:06.235                             : en:Professional Help
  70. 00:54:54.541                             : en:The Mole Is Dead
  71. 01:02:25.867                             : en:Summer Swim
  72. 01:08:05.832                             : en:Running Away
  73. 01:13:30.698                             : en:A New Old Dress
  74. 01:19:12.498                             : en:Reunion at the House
  75. 01:25:04.474                             : en:Alone
复制代码

吓死杰西卡/吓人到死 Lets.Scare.Jessica.To.Death.1971.1080p.BluRay.x264.DTS-FGT 8.07GB-2.png 吓死杰西卡/吓人到死 Lets.Scare.Jessica.To.Death.1971.1080p.BluRay.x264.DTS-FGT 8.07GB-3.png 吓死杰西卡/吓人到死 Lets.Scare.Jessica.To.Death.1971.1080p.BluRay.x264.DTS-FGT 8.07GB-4.png






回复

使用道具 举报

蓝光币
757
发表于 2020-2-1 21:09:11 | 显示全部楼层
谢谢楼主无私分享。
回复 支持 反对

使用道具 举报

懒得打字嘛,点击右侧快捷回复 【右侧内容,后台自定义】
您需要登录后才可以回帖 登录 | 立即加入

本版积分规则

Archiver|小黑屋| 蓝光电影网 |网站地图

Copyright © 2021 Comsenz Inc. Powered by 蓝光电影网

蓝光电影网

本站内容由用户自主分享和转载自互联网,转载目的在于传递更多信息,并不代表本网赞同其观点和对其真实性负责。

如有侵权、违反国家法律政策行为,请联系我们,我们会第一时间及时清除和处理!

举报反馈邮箱:[email protected]

快速回复 返回顶部 返回列表