找回密码

蓝光电影网

查看: 640|回复: 3

[喜剧] Z岛 Deadman.Inferno.2015.JAPANESE.1080p.BluRay.x264.DTS-iKiW 11.05GB

[复制链接]
蓝光币
886
发表于 2020-2-1 17:50:57 | 显示全部楼层 |阅读模式
Z岛 Deadman.Inferno.2015.JAPANESE.1080p.BluRay.x264.DTS-iKiW 11.05GB-1.png

译  名 Z岛 / Deadman Inferno
片  名 Zアイランド
年  代 2015
产  地 日本
类  别 笑剧 / 行动 / 可骇
语  言 日语
上映日期 2015-05-16(日本)
IMDb评分  5.5/10 from 129 users
IMDb链接  https://www.imdb.com/title/tt4146350
豆瓣评分 6.6/10 from 2320 users
豆瓣链接 https://movie.douban.com/subject/25872196/
片  长 108分钟
导  演 品川祐 Hiroshi Shinagawa
编  剧 品川祐 Hiroshi Shinagawa
主  演 哀川翔 Show Aikawa
       鹤见辰吾 Shingo Tsurumi
       铃木砂羽 Sawa Suzuki
       RED RICE
       木村佑一 Y?ichi Kimura
       川岛邦裕
       中野豪杰 Hideo Nakano
       山本舞香 Maika Yamamoto
       水野绘梨奈 Erina Mizuno
       风间俊介 Shunsuke Kazama
       洼冢洋介 Y?suke Kubozuka
       宍户佑名 Kavka Shishido
       崔般若 Ban-ya Choi
       筱原友希子 Yukiko Shinohara


标  签 丧尸 | 日本 | 日本电影 | 可骇 | 笑剧 | 黑色诙谐 | 搞笑 | 2015

简  介  

  已经风光一时的黑帮头子宗形博也(哀川翔 饰),在一次构造匹敌后受伤并被迫退出江湖。多年以来,他和拜把兄弟信也(RED RICE 饰)忍辱求生,并尽心照顾坐牢的兄弟武史(鹤见辰己 饰)的女儿日向(山本舞香 饰)。武史出狱,日向却和洽友塞拉(水野绘梨奈 饰)出走跑到了钱荷岛。与此同时,岛上病毒性伤风风行,黑帮竹下组成员吉田明(宫川大辅 饰)窃取构造的违禁药物看成殊效药在岛上兜销,谁知却令自己成为了可怕的丧尸。
  丧尸风暴敏捷舒展全岛,而尾随日向而至的宗形一行以及追踪吉田而来的竹下组武负气派目(木村佑一 饰)等人,在这个最糟糕的时辰来到了这片血腥的修罗场……
  1. Video
  2. ID                                       : 1
  3. Format                                   : AVC
  4. Format/Info                              : Advanced Video Codec
  5. Format profile                           : [email protected]
  6. Format settings                          : CABAC / 5 Ref Frames
  7. Format settings, CABAC                   : Yes
  8. Format settings, Reference frames        : 5 frames
  9. Codec ID                                 : V_MPEG4/ISO/AVC
  10. Duration                                 : 1 h 48 min
  11. Bit rate                                 : 13.0 Mb/s
  12. Width                                    : 1 920 pixels
  13. Height                                   : 802 pixels
  14. Display aspect ratio                     : 2.40:1
  15. Frame rate mode                          : Constant
  16. Frame rate                               : 23.976 (24000/1001) FPS
  17. Color space                              : YUV
  18. Chroma subsampling                       : 4:2:0
  19. Bit depth                                : 8 bits
  20. Scan type                                : Progressive
  21. Bits/(Pixel*Frame)                       : 0.352
  22. Stream size                              : 9.89 GiB (89%)
  23. Writing library                          : x264 core 142 r2431+42 c69a006 tMod [[email protected] X86_64]
  24. Encoding settings                        : cabac=1 / ref=5 / deblock=1:-3:-3 / analyse=0x3:0x133 / me=umh / subme=11 / psy=1 / fade_compensate=0.00 / psy_rd=1.05:0.05 / mixed_ref=1 / me_range=64 / chroma_me=1 / trellis=2 / 8x8dct=1 / cqm=0 / deadzone=21,11 / fast_pskip=0 / chroma_qp_offset=-3 / threads=12 / lookahead_threads=3 / sliced_threads=0 / nr=0 / decimate=0 / interlaced=0 / bluray_compat=0 / constrained_intra=0 / fgo=0 / bframes=10 / b_pyramid=2 / b_adapt=2 / b_bias=0 / direct=3 / weightb=1 / open_gop=0 / weightp=2 / keyint=250 / keyint_min=23 / scenecut=40 / intra_refresh=0 / rc_lookahead=100 / rc=2pass / mbtree=0 / bitrate=13000 / ratetol=1.0 / qcomp=0.70 / qpmin=0:0:0 / qpmax=69:69:69 / qpstep=4 / cplxblur=20.0 / qblur=0.5 / vbv_maxrate=50000 / vbv_bufsize=50000 / nal_hrd=none / filler=0 / ip_ratio=1.40 / pb_ratio=1.30 / aq=1:0.80 / aq-sensitivity=10.00 / aq-factor=1.00:1.00:1.00 / aq2=0 / aq3=0
  25. Language                                 : Japanese
  26. Default                                  : Yes
  27. Forced                                   : No

  28. Audio
  29. ID                                       : 2
  30. Format                                   : DTS
  31. Format/Info                              : Digital Theater Systems
  32. Codec ID                                 : A_DTS
  33. Duration                                 : 1 h 48 min
  34. Bit rate mode                            : Constant
  35. Bit rate                                 : 1 509 kb/s
  36. Channel(s)                               : 6 channels
  37. Channel layout                           : C L R Ls Rs LFE
  38. Sampling rate                            : 48.0 kHz
  39. Frame rate                               : 93.750 FPS (512 SPF)
  40. Bit depth                                : 16 bits
  41. Compression mode                         : Lossy
  42. Stream size                              : 1.15 GiB (10%)
  43. Language                                 : Japanese
  44. Default                                  : Yes
  45. Forced                                   : No

  46. Text #1
  47. ID                                       : 3
  48. Format                                   : UTF-8
  49. Codec ID                                 : S_TEXT/UTF8
  50. Codec ID/Info                            : UTF-8 Plain Text
  51. Duration                                 : 1 h 43 min
  52. Bit rate                                 : 42 b/s
  53. Count of elements                        : 1527
  54. Stream size                              : 32.2 KiB (0%)
  55. Language                                 : English
  56. Default                                  : Yes
  57. Forced                                   : No

  58. Text #2
  59. ID                                       : 4
  60. Format                                   : ASS
  61. Codec ID                                 : S_TEXT/ASS
  62. Codec ID/Info                            : Advanced Sub Station Alpha
  63. Duration                                 : 1 h 48 min
  64. Bit rate                                 : 116 b/s
  65. Count of elements                        : 1946
  66. Compression mode                         : Lossless
  67. Stream size                              : 92.1 KiB (0%)
  68. Title                                    : CHT
  69. Language                                 : Chinese
  70. Default                                  : No
  71. Forced                                   : No

  72. Menu
  73. 00:00:00.000                             : en:00:00:00.000
  74. 00:04:36.902                             : en:00:04:36.902
  75. 00:29:19.925                             : en:00:29:19.925
  76. 00:44:46.350                             : en:00:44:46.350
  77. 00:55:10.015                             : en:00:55:10.015
  78. 01:07:31.965                             : en:01:07:31.965
  79. 01:20:32.995                             : en:01:20:32.995
  80. 01:26:57.921                             : en:01:26:57.921
  81. 01:36:34.497                             : en:01:36:34.497
  82. 01:43:39.213                             : en:01:43:39.213
复制代码

Z岛 Deadman.Inferno.2015.JAPANESE.1080p.BluRay.x264.DTS-iKiW 11.05GB-2.png Z岛 Deadman.Inferno.2015.JAPANESE.1080p.BluRay.x264.DTS-iKiW 11.05GB-3.png Z岛 Deadman.Inferno.2015.JAPANESE.1080p.BluRay.x264.DTS-iKiW 11.05GB-4.png






回复

使用道具 举报

蓝光币
554
发表于 2020-2-2 10:41:59 | 显示全部楼层

我看不错噢 谢谢楼主!蓝光电影网越来越好!
回复 支持 反对

使用道具 举报

懒得打字嘛,点击右侧快捷回复 【右侧内容,后台自定义】
您需要登录后才可以回帖 登录 | 立即加入

本版积分规则

Archiver|小黑屋| 蓝光电影网 |网站地图

Copyright © 2021 Comsenz Inc. Powered by 蓝光电影网

蓝光电影网

本站内容由用户自主分享和转载自互联网,转载目的在于传递更多信息,并不代表本网赞同其观点和对其真实性负责。

如有侵权、违反国家法律政策行为,请联系我们,我们会第一时间及时清除和处理!

举报反馈邮箱:[email protected]

快速回复 返回顶部 返回列表