找回密码

蓝光电影网

查看: 1250|回复: 4

[剧情] 极速车王 Ford.v.Ferrari.2019.1080p.BluRay.REMUX.AVC.DTS-HD.MA.7.1-FGT 32.20GB

[复制链接]
蓝光币
886
发表于 2020-2-1 18:29:05 | 显示全部楼层 |阅读模式
极速车王 Ford.v.Ferrari.2019.1080p.BluRay.REMUX.AVC.DTS-HD.MA.7.1-FGT 32.20GB-1.png

译  名 极速车王 / Go Like Hell / Kings of the Road / Le Mans '66 / 天堂驾驶 / 极速之王 / 极速传奇:褔特决战法拉利(港) / 福特大战法拉利 / 赛道狂人(台)
片  名 Ford v Ferrari
年  代 2019
产  地 美国 / 法国
类  别 剧情 / 列传 / 活动
语  言 英语 / 意大利语 / 法语 / 日语
上映日期 2019-08-30(特柳赖德电影节) / 2019-11-15(美国)
IMDb评分  8.2/10 from 99717 users
IMDb链接  https://www.imdb.com/title/tt1950186
豆瓣评分 8.5/10 from 31818 users
豆瓣链接 https://movie.douban.com/subject/6538866/
片  长 152分钟
导  演 詹姆斯·曼高德 James Mangold
编  剧 詹姆斯·曼高德 James Mangold / 杰斯·巴特沃斯 Jez Butterworth / 约翰-亨利·巴特沃斯 John-Henry Butterworth / 贾森·凯勒 Jason Keller / A·J·拜梅 A.J. Baime
主  演 马特·达蒙 Matt Damon
       克里斯蒂安·贝尔 Christian Bale
       乔·博恩瑟 Jon Bernthal
       诺亚·尤佩 Noah Jupe
       玛丽萨·佩特罗 Marisa Petroro
       凯特瑞娜·巴尔夫 Caitriona Balfe
       乔什·卢卡斯 Josh Lucas
       雷·迈克金农 Ray McKinnon
       约翰·约瑟夫·菲尔德 JJ Feild
       崔西·莱茨 Tracy Letts
       华莱士·朗翰 Wallace Langham
       乔纳森·拉帕格里拉 Jonathan LaPaglia
       斯特凡 Stefania Spampinato
       鲁道夫·马丁 Rudolf Martin
       拉奇兰·布坎南 Lachlan Buchanan
       瓦德·霍尔顿 Ward Horton
       肖恩·卡里甘 Sean Carrigan
       克里斯托弗·达尔加 Christopher Darga
       亚当·梅菲尔德 Adam Mayfield
       乔瓦尼索罗菲瓦 Giovanni Cirfiera
       乔·威廉森 Joe Williamson
       本杰明·里格比 Benjamin Rigby
       杰克·麦克马伦 Jack McMullen
       保罗·福克斯 Paul Fox
       雷莫·吉罗内 Remo Girone
       德鲁·劳施 Drew Rausch
       朱利安·米勒 Julian Miller
       艾拉姆·奥里安 Aylam Orian
       埃姆利·贝赫什蒂 Emil Beheshti
       蒂芙妮·伊冯娜·考克斯 Tiffany Yvonne Cox
       达林·库珀 Darin Cooper
       科拉多·因韦尔尼齐 Corrado Invernizzi
       特洛伊·迪林格 Troy Dillinger
       彼得·阿佩塞拉 Peter Arpesella
       斯凯勒·马歇尔 Skyler Marshall


标  签 赛车 | 列传 | 美国 | 实在事务改编 | 2019 | 剧情 | 活动 | 行动

简  介  

  基于实在故事,聚焦由汽车设想师卡罗尔·谢尔比率领的一队美国工程师、设想师,以及他旗下的英国车手肯·迈尔斯,亨利·福特二世要求谢尔比打造一辆全新的赛车,希望能在1966年的勒芒天下锦标赛上打败持久占主导职位的法拉利。终极福特GT40在勒芒24小时耐力赛中成功击败法拉利,并连任了1967和1968年的冠军。

获奖情况  

  第92届奥斯卡金像奖(2020)
  最好影片(提名)
  最好剪辑(提名) 迈克尔·麦卡斯克 / 安德鲁·巴克兰
  最好混音(提名) David Giammarco / 史蒂文·莫罗 / 保罗·马瑟
  最好音效剪辑(提名)

  第77届金球奖(2020)
  电影类 剧情片最好男配角(提名) 克里斯蒂安·贝尔

  第73届英国电影学院奖(2020)
  电影奖 最好摄影(提名) 芬顿·帕帕迈可
  电影奖 最好剪辑(提名) 迈克尔·麦卡斯克 / 安德鲁·巴克兰
  电影奖 最好音效(提名)

  第26届美国演员工会奖(2020)
  电影奖 最好男配角(提名) 克里斯蒂安·贝尔
  电影最好特技群戏(提名)

  第31届美国制片野生会奖(2020)
  最好电影制片人奖(提名)

  第34届美国摄影协会奖(2020)
  电影长片最好摄影(提名) 芬顿·帕帕迈可

  第70届美国剪辑工会奖(2020)
  剧情片最好剪辑(提名) 迈克尔·麦卡斯克 / 安德鲁·巴克兰

  第24届美国艺术指导工会奖(2020)
  电影奖 最好历史电影艺术指导(提名) 弗朗索瓦·奥杜伊

  第67届美国音效剪辑协会奖(2020)
  金卷轴奖 最好电影音效剪辑
  金卷轴奖 最好电影对白剪辑(提名)

  第18届美国视觉结果协会奖(2020)
  最好电影帮助视觉结果(提名)

  第56届美国声音结果协会奖(2020)
  真人电影最好音效

  第91届美国国家批评协会奖(2019)
  年度佳片

  第25届美国批评家挑选电影奖(2020)
  最好影片(提名)
  最好行动片(提名)
  最好摄影(提名)
  最好剪辑(提名)
  最好视觉结果(提名)

  第24届金卫星奖(2020)
  电影部分 最好剧情片(提名)
  电影部分 最好导演 詹姆斯·曼高德
  电影部分 剧情片最好男配角 克里斯蒂安·贝尔
  电影部分 最好原创剧本(提名) 杰斯·巴特沃斯 / 约翰-亨利·巴特沃斯 / 贾森·凯勒
  电影部分 最好原创配乐(提名)
  电影部分 最好摄影(提名)
  电影部分 最好视觉结果(提名)
  电影部分 最好剪辑
  电影部分 最好音效
  电影部分 最好美术指导(提名)

  第23届好莱坞电影奖(2019)
  年度导演 詹姆斯·曼高德
  年度剪辑 迈克尔·麦卡斯克 / 安德鲁·巴克兰
  年度音效 David Giammarco / Donald Sylvester / 史蒂文·莫罗 / 保罗·马瑟

  第18届华盛顿影评人协会奖(2019)
  最好剪辑

  第40届伦敦影评人协会奖(2020)
  年度英国/爱尔兰小演员(提名) 诺亚·尤佩

  第23届美国在线影评人协会奖(2020)
  最好剪辑(提名) 迈克尔·麦卡斯克 / 安德鲁·巴克兰
  1. Video
  2. ID                                       : 1
  3. Format                                   : AVC
  4. Format/Info                              : Advanced Video Codec
  5. Format profile                           : [email protected]
  6. Format settings                          : CABAC / 4 Ref Frames
  7. Format settings, CABAC                   : Yes
  8. Format settings, Reference frames        : 4 frames
  9. Codec ID                                 : V_MPEG4/ISO/AVC
  10. Duration                                 : 2 h 32 min
  11. Bit rate mode                            : Variable
  12. Bit rate                                 : 23.4 Mb/s
  13. Maximum bit rate                         : 34.0 Mb/s
  14. Width                                    : 1 920 pixels
  15. Height                                   : 1 080 pixels
  16. Display aspect ratio                     : 16:9
  17. Frame rate mode                          : Constant
  18. Frame rate                               : 23.976 (24000/1001) FPS
  19. Color space                              : YUV
  20. Chroma subsampling                       : 4:2:0
  21. Bit depth                                : 8 bits
  22. Scan type                                : Progressive
  23. Bits/(Pixel*Frame)                       : 0.471
  24. Stream size                              : 25.0 GiB (78%)
  25. Title                                    : Ford.v.Ferrari.2019.1080p.BluRay.REMUX.AVC.DTS-HD.MA.7.1-FGT
  26. Language                                 : English
  27. Default                                  : No
  28. Forced                                   : No

  29. Audio #1
  30. ID                                       : 2
  31. Format                                   : DTS ES XLL
  32. Format/Info                              : Digital Theater Systems
  33. Commercial name                          : DTS-HD Master Audio
  34. Codec ID                                 : A_DTS
  35. Duration                                 : 2 h 32 min
  36. Bit rate mode                            : Variable
  37. Bit rate                                 : 5 158 kb/s
  38. Channel(s)                               : 8 channels
  39. Channel layout                           : C L R Ls Rs LFE Lb Rb
  40. Sampling rate                            : 48.0 kHz
  41. Frame rate                               : 93.750 FPS (512 SPF)
  42. Bit depth                                : 24 bits
  43. Compression mode                         : Lossless
  44. Stream size                              : 5.50 GiB (17%)
  45. Title                                    : Ford.v.Ferrari.2019.1080p.BluRay.REMUX.AVC.DTS-HD.MA.7.1-FGT
  46. Language                                 : English
  47. Default                                  : Yes
  48. Forced                                   : No

  49. Audio #2
  50. ID                                       : 3
  51. Format                                   : AC-3
  52. Format/Info                              : Audio Coding 3
  53. Commercial name                          : Dolby Digital
  54. Codec ID                                 : A_AC3
  55. Duration                                 : 2 h 32 min
  56. Bit rate mode                            : Constant
  57. Bit rate                                 : 448 kb/s
  58. Channel(s)                               : 6 channels
  59. Channel layout                           : L R C LFE Ls Rs
  60. Sampling rate                            : 48.0 kHz
  61. Frame rate                               : 31.250 FPS (1536 SPF)
  62. Bit depth                                : 16 bits
  63. Compression mode                         : Lossy
  64. Stream size                              : 489 MiB (1%)
  65. Title                                    : Ford.v.Ferrari.2019.1080p.BluRay.REMUX.AVC.DTS-HD.MA.7.1-FGT
  66. Language                                 : Spanish
  67. Service kind                             : Complete Main
  68. Default                                  : No
  69. Forced                                   : No

  70. Audio #3
  71. ID                                       : 4
  72. Format                                   : AC-3
  73. Format/Info                              : Audio Coding 3
  74. Commercial name                          : Dolby Digital
  75. Codec ID                                 : A_AC3
  76. Duration                                 : 2 h 32 min
  77. Bit rate mode                            : Constant
  78. Bit rate                                 : 448 kb/s
  79. Channel(s)                               : 6 channels
  80. Channel layout                           : L R C LFE Ls Rs
  81. Sampling rate                            : 48.0 kHz
  82. Frame rate                               : 31.250 FPS (1536 SPF)
  83. Bit depth                                : 16 bits
  84. Compression mode                         : Lossy
  85. Stream size                              : 489 MiB (1%)
  86. Title                                    : Ford.v.Ferrari.2019.1080p.BluRay.REMUX.AVC.DTS-HD.MA.7.1-FGT
  87. Language                                 : French
  88. Service kind                             : Complete Main
  89. Default                                  : No
  90. Forced                                   : No

  91. Audio #4
  92. ID                                       : 5
  93. Format                                   : AC-3
  94. Format/Info                              : Audio Coding 3
  95. Commercial name                          : Dolby Digital
  96. Codec ID                                 : A_AC3
  97. Duration                                 : 2 h 32 min
  98. Bit rate mode                            : Constant
  99. Bit rate                                 : 224 kb/s
  100. Channel(s)                               : 2 channels
  101. Channel layout                           : L R
  102. Sampling rate                            : 48.0 kHz
  103. Frame rate                               : 31.250 FPS (1536 SPF)
  104. Bit depth                                : 16 bits
  105. Compression mode                         : Lossy
  106. Stream size                              : 244 MiB (1%)
  107. Title                                    : Ford.v.Ferrari.2019.1080p.BluRay.REMUX.AVC.DTS-HD.MA.7.1-FGT
  108. Language                                 : English
  109. Service kind                             : Complete Main
  110. Default                                  : No
  111. Forced                                   : No

  112. Audio #5
  113. ID                                       : 6
  114. Format                                   : AC-3
  115. Format/Info                              : Audio Coding 3
  116. Commercial name                          : Dolby Digital
  117. Codec ID                                 : A_AC3
  118. Duration                                 : 2 h 32 min
  119. Bit rate mode                            : Constant
  120. Bit rate                                 : 448 kb/s
  121. Channel(s)                               : 6 channels
  122. Channel layout                           : L R C LFE Ls Rs
  123. Sampling rate                            : 48.0 kHz
  124. Frame rate                               : 31.250 FPS (1536 SPF)
  125. Bit depth                                : 16 bits
  126. Compression mode                         : Lossy
  127. Stream size                              : 489 MiB (1%)
  128. Title                                    : Ford.v.Ferrari.2019.1080p.BluRay.REMUX.AVC.DTS-HD.MA.7.1-FGT
  129. Language                                 : English
  130. Service kind                             : Complete Main
  131. Default                                  : No
  132. Forced                                   : No

  133. Text #1
  134. ID                                       : 7
  135. Format                                   : UTF-8
  136. Codec ID                                 : S_TEXT/UTF8
  137. Codec ID/Info                            : UTF-8 Plain Text
  138. Duration                                 : 1 h 24 min
  139. Bit rate                                 : 0 b/s
  140. Count of elements                        : 9
  141. Stream size                              : 304 Bytes (0%)
  142. Title                                    : English-FORCED-SRT
  143. Language                                 : English
  144. Default                                  : Yes
  145. Forced                                   : Yes

  146. Text #2
  147. ID                                       : 8
  148. Format                                   : UTF-8
  149. Codec ID                                 : S_TEXT/UTF8
  150. Codec ID/Info                            : UTF-8 Plain Text
  151. Duration                                 : 2 h 32 min
  152. Bit rate                                 : 66 b/s
  153. Count of elements                        : 2489
  154. Stream size                              : 73.8 KiB (0%)
  155. Title                                    : English-SRT
  156. Language                                 : English
  157. Default                                  : No
  158. Forced                                   : No

  159. Text #3
  160. ID                                       : 9
  161. Format                                   : PGS
  162. Muxing mode                              : zlib
  163. Codec ID                                 : S_HDMV/PGS
  164. Codec ID/Info                            : Picture based subtitle format used on BDs/HD-DVDs
  165. Duration                                 : 2 h 32 min
  166. Bit rate                                 : 47.0 kb/s
  167. Count of elements                        : 4996
  168. Stream size                              : 51.3 MiB (0%)
  169. Title                                    : English-PGS
  170. Language                                 : English
  171. Default                                  : No
  172. Forced                                   : No

  173. Text #4
  174. ID                                       : 10
  175. Format                                   : PGS
  176. Muxing mode                              : zlib
  177. Codec ID                                 : S_HDMV/PGS
  178. Codec ID/Info                            : Picture based subtitle format used on BDs/HD-DVDs
  179. Duration                                 : 2 h 31 min
  180. Bit rate                                 : 32.9 kb/s
  181. Count of elements                        : 3910
  182. Stream size                              : 35.6 MiB (0%)
  183. Title                                    : Spanish-PGS
  184. Language                                 : Spanish
  185. Default                                  : No
  186. Forced                                   : No

  187. Text #5
  188. ID                                       : 11
  189. Format                                   : PGS
  190. Muxing mode                              : zlib
  191. Codec ID                                 : S_HDMV/PGS
  192. Codec ID/Info                            : Picture based subtitle format used on BDs/HD-DVDs
  193. Duration                                 : 2 h 31 min
  194. Bit rate                                 : 557 b/s
  195. Count of elements                        : 52
  196. Stream size                              : 618 KiB (0%)
  197. Title                                    : Spanish-FORCED-PGS
  198. Language                                 : Spanish
  199. Default                                  : No
  200. Forced                                   : No

  201. Text #6
  202. ID                                       : 12
  203. Format                                   : PGS
  204. Muxing mode                              : zlib
  205. Codec ID                                 : S_HDMV/PGS
  206. Codec ID/Info                            : Picture based subtitle format used on BDs/HD-DVDs
  207. Duration                                 : 2 h 31 min
  208. Bit rate                                 : 33.8 kb/s
  209. Count of elements                        : 4130
  210. Stream size                              : 36.7 MiB (0%)
  211. Title                                    : French-PGS
  212. Language                                 : French
  213. Default                                  : No
  214. Forced                                   : No

  215. Text #7
  216. ID                                       : 13
  217. Format                                   : PGS
  218. Muxing mode                              : zlib
  219. Codec ID                                 : S_HDMV/PGS
  220. Codec ID/Info                            : Picture based subtitle format used on BDs/HD-DVDs
  221. Duration                                 : 2 h 31 min
  222. Bit rate                                 : 431 b/s
  223. Count of elements                        : 38
  224. Stream size                              : 478 KiB (0%)
  225. Title                                    : French-FORCED-PGS
  226. Language                                 : French
  227. Default                                  : No
  228. Forced                                   : No

  229. Text #8
  230. ID                                       : 14
  231. Format                                   : PGS
  232. Muxing mode                              : zlib
  233. Codec ID                                 : S_HDMV/PGS
  234. Codec ID/Info                            : Picture based subtitle format used on BDs/HD-DVDs
  235. Duration                                 : 1 h 24 min
  236. Bit rate                                 : 150 b/s
  237. Count of elements                        : 18
  238. Stream size                              : 92.9 KiB (0%)
  239. Title                                    : English-FORCED-PGS
  240. Language                                 : English
  241. Default                                  : No
  242. Forced                                   : No

  243. Text #9
  244. ID                                       : 15
  245. Format                                   : PGS
  246. Muxing mode                              : zlib
  247. Codec ID                                 : S_HDMV/PGS
  248. Codec ID/Info                            : Picture based subtitle format used on BDs/HD-DVDs
  249. Duration                                 : 1 h 24 min
  250. Bit rate                                 : 150 b/s
  251. Count of elements                        : 18
  252. Stream size                              : 92.9 KiB (0%)
  253. Title                                    : English-FORCED-PGS
  254. Language                                 : English
  255. Default                                  : No
  256. Forced                                   : No

  257. Menu
  258. 00:00:00.000                             : en:Chapter 01
  259. 00:04:45.618                             : en:Chapter 02
  260. 00:07:32.535                             : en:Chapter 03
  261. 00:10:02.810                             : en:Chapter 04
  262. 00:15:39.313                             : en:Chapter 05
  263. 00:20:15.172                             : en:Chapter 06
  264. 00:21:39.798                             : en:Chapter 07
  265. 00:26:00.892                             : en:Chapter 08
  266. 00:31:57.874                             : en:Chapter 09
  267. 00:34:09.756                             : en:Chapter 10
  268. 00:39:13.267                             : en:Chapter 11
  269. 00:42:06.899                             : en:Chapter 12
  270. 00:45:57.004                             : en:Chapter 13
  271. 00:48:38.665                             : en:Chapter 14
  272. 00:51:22.079                             : en:Chapter 15
  273. 00:55:03.675                             : en:Chapter 16
  274. 00:57:50.800                             : en:Chapter 17
  275. 01:00:27.040                             : en:Chapter 18
  276. 01:06:33.489                             : en:Chapter 19
  277. 01:11:59.815                             : en:Chapter 20
  278. 01:16:13.777                             : en:Chapter 21
  279. 01:19:30.515                             : en:Chapter 22
  280. 01:24:18.762                             : en:Chapter 23
  281. 01:29:24.984                             : en:Chapter 24
  282. 01:33:16.173                             : en:Chapter 25
  283. 01:38:11.302                             : en:Chapter 26
  284. 01:40:57.468                             : en:Chapter 27
  285. 01:43:23.322                             : en:Chapter 28
  286. 01:45:49.217                             : en:Chapter 29
  287. 01:50:38.965                             : en:Chapter 30
  288. 01:53:38.353                             : en:Chapter 31
  289. 01:57:47.602                             : en:Chapter 32
  290. 02:00:16.667                             : en:Chapter 33
  291. 02:05:22.890                             : en:Chapter 34
  292. 02:09:18.375                             : en:Chapter 35
  293. 02:12:01.496                             : en:Chapter 36
  294. 02:15:26.409                             : en:Chapter 37
  295. 02:18:23.128                             : en:Chapter 38
  296. 02:20:46.438                             : en:Chapter 39
  297. 02:26:27.612                             : en:Chapter 40
复制代码

极速车王 Ford.v.Ferrari.2019.1080p.BluRay.REMUX.AVC.DTS-HD.MA.7.1-FGT 32.20GB-1.png 极速车王 Ford.v.Ferrari.2019.1080p.BluRay.REMUX.AVC.DTS-HD.MA.7.1-FGT 32.20GB-3.png 极速车王 Ford.v.Ferrari.2019.1080p.BluRay.REMUX.AVC.DTS-HD.MA.7.1-FGT 32.20GB-2.png






回复

使用道具 举报

蓝光币
23
发表于 2020-2-2 22:47:42 | 显示全部楼层

这东西我收了!谢谢楼主!蓝光电影网真好!
回复 支持 反对

使用道具 举报

蓝光币
23
发表于 2020-2-2 22:51:22 | 显示全部楼层
楼主发贴辛苦了,谢谢楼主分享!我觉得蓝光电影网是注册对了!
回复 支持 反对

使用道具 举报

蓝光币
1076
发表于 2020-2-6 03:17:00 | 显示全部楼层
楼主发贴辛苦了,谢谢楼主分享!
回复 支持 反对

使用道具 举报

蓝光币
126
发表于 2020-2-6 09:42:15 | 显示全部楼层
好电影      谢谢分享
回复 支持 反对

使用道具 举报

懒得打字嘛,点击右侧快捷回复 【右侧内容,后台自定义】
您需要登录后才可以回帖 登录 | 立即加入

本版积分规则

Archiver|小黑屋| 蓝光电影网 |网站地图

Copyright © 2021 Comsenz Inc. Powered by 蓝光电影网

蓝光电影网

本站内容由用户自主分享和转载自互联网,转载目的在于传递更多信息,并不代表本网赞同其观点和对其真实性负责。

如有侵权、违反国家法律政策行为,请联系我们,我们会第一时间及时清除和处理!

举报反馈邮箱:[email protected]

快速回复 返回顶部 返回列表