找回密码

蓝光电影网

查看: 185|回复: 0

[剧情] 不需要邮费 No.Postage.Necessary.2017.1080p.AMZN.WEBRip.DDP5.1.x264-TOMMY 7.25GB

[复制链接]
蓝光币
1022
发表于 2020-2-2 00:02:51 | 显示全部楼层 |阅读模式
不需要邮费 No.Postage.Necessary.2017.1080p.AMZN.WEBRip.DDP5.1.x264-TOMMY 7.25GB-1.png

译  名 不需要邮费
片  名 No Postage Necessary
年  代 2017
产  地 美国
类  别 剧情 / 笑剧
语  言 英语
上映日期 2017-10-14(美国)
IMDb评分  6.5/10 from 806 users
IMDb链接  https://www.imdb.com/title/tt5988216
豆瓣评分 0/10 from 0 users
豆瓣链接 https://movie.douban.com/subject/26985450/
导  演 Jeremy Culver
编  剧 Jeremy Culver
主  演 乔治·布莱顿 George Blagden
       Charleene Closshey
       罗比·凯 Robbie Kay
       迈克尔·比奇 Michael Beach
       雷蒙德·J·巴里 Raymond J. Barry
       斯特里奥·萨万特 Stelio Savante
       米歇尔·莫雷诺 Michelle Moreno
       马修·康威尔 Matthew Cornwell
       奥图姆·戴尔 Autumn Dial
       Charles Closshey
       Morgen Culver
       Gareth Dunlop
       Lowrie Fawley
       Isabella Goodwin
       Evelyn Gutierrez
       Shandi Hampton
       Vincenzo Hinckley
       Sean Mahabir
       Darrin Ortiz
       Dylan Ramus-Wright
       Matt Sharp
       Fedor Steer
       Marty Stonerock
       Caleb Stupka
       David Velez
       Ricky Wayne
       Trevor Wesley
       Tyler White


标  签 美国电影 | 笑剧 | 2017

简  介  

  Sam, a brilliant computer hacker seeking a better life, always seems to make the wrong choices, even under the watchful eye of his probation officer, Harry. Now, barred from using the Internet and stuck working fast food with his best friend and fellow hacker, Stanley, Sam poses as a Postal Worker, stealing people's mail to make ends meet. Until one letter changes everything. Written by the beautiful Josie to her dead husband, a Marine killed in Afghanistan, the heart-wrenching missive wakes something in Sam. Desperate to become worthy of such love, he begins following Josie and stealing more letters, until finally finding the courage to introduce himself. As Sam and Josie grow closer, she warms to the possibility of a new life as he's reminded of the values left behind in childhood. But fate shows its hand when Sam's past catches up with him in the form of an aggressive FBI agent and missing Bitcoins. When Josie discovers the truth, she must decide if the betrayal will force her back...
  1. Video
  2. ID                                       : 1
  3. Format                                   : AVC
  4. Format/Info                              : Advanced Video Codec
  5. Format profile                           : [email protected]
  6. Format settings                          : CABAC / 4 Ref Frames
  7. Format settings, CABAC                   : Yes
  8. Format settings, Reference frames        : 4 frames
  9. Codec ID                                 : V_MPEG4/ISO/AVC
  10. Duration                                 : 1 h 44 min
  11. Bit rate mode                            : Constant
  12. Bit rate                                 : 9 288 kb/s
  13. Nominal bit rate                         : 10 000 kb/s
  14. Width                                    : 1 920 pixels
  15. Height                                   : 800 pixels
  16. Display aspect ratio                     : 2.40:1
  17. Frame rate mode                          : Constant
  18. Frame rate                               : 23.976 (24000/1001) FPS
  19. Color space                              : YUV
  20. Chroma subsampling                       : 4:2:0
  21. Bit depth                                : 8 bits
  22. Scan type                                : Progressive
  23. Bits/(Pixel*Frame)                       : 0.252
  24. Stream size                              : 6.78 GiB (94%)
  25. Default                                  : Yes
  26. Forced                                   : No
  27. Color range                              : Limited
  28. Color primaries                          : BT.709
  29. Transfer characteristics                 : BT.709
  30. Matrix coefficients                      : BT.709

  31. Audio
  32. ID                                       : 2
  33. Format                                   : E-AC-3
  34. Format/Info                              : Enhanced AC-3
  35. Commercial name                          : Dolby Digital Plus
  36. Codec ID                                 : A_EAC3
  37. Duration                                 : 1 h 44 min
  38. Bit rate mode                            : Constant
  39. Bit rate                                 : 640 kb/s
  40. Channel(s)                               : 6 channels
  41. Channel layout                           : L R C LFE Ls Rs
  42. Sampling rate                            : 48.0 kHz
  43. Frame rate                               : 31.250 FPS (1536 SPF)
  44. Compression mode                         : Lossy
  45. Stream size                              : 478 MiB (6%)
  46. Title                                    : English
  47. Language                                 : English
  48. Service kind                             : Complete Main
  49. Default                                  : Yes
  50. Forced                                   : No

  51. Text
  52. ID                                       : 3
  53. Format                                   : UTF-8
  54. Codec ID                                 : S_TEXT/UTF8
  55. Codec ID/Info                            : UTF-8 Plain Text
  56. Duration                                 : 1 h 43 min
  57. Bit rate                                 : 54 b/s
  58. Count of elements                        : 1367
  59. Stream size                              : 41.6 KiB (0%)
  60. Title                                    : English [SDH]
  61. Language                                 : English
  62. Default                                  : No
  63. Forced                                   : No
复制代码

不需要邮费 No.Postage.Necessary.2017.1080p.AMZN.WEBRip.DDP5.1.x264-TOMMY 7.25GB-1.png 不需要邮费 No.Postage.Necessary.2017.1080p.AMZN.WEBRip.DDP5.1.x264-TOMMY 7.25GB-3.png 不需要邮费 No.Postage.Necessary.2017.1080p.AMZN.WEBRip.DDP5.1.x264-TOMMY 7.25GB-2.png






回复

使用道具 举报

懒得打字嘛,点击右侧快捷回复 【右侧内容,后台自定义】
您需要登录后才可以回帖 登录 | 立即加入

本版积分规则

Archiver|小黑屋| 蓝光电影网 |网站地图

Copyright © 2021 Comsenz Inc. Powered by 蓝光电影网

蓝光电影网

本站内容由用户自主分享和转载自互联网,转载目的在于传递更多信息,并不代表本网赞同其观点和对其真实性负责。

如有侵权、违反国家法律政策行为,请联系我们,我们会第一时间及时清除和处理!

举报反馈邮箱:[email protected]

快速回复 返回顶部 返回列表