找回密码

蓝光电影网

查看: 2911|回复: 1

[惊悚] 救我们脱离凶恶/但能从邪恶中拯救我们 But.Deliver.Us.from.Evil.2017.1080p.WEB-DL.AAC2.0.H264-FGT 3.72GB

[复制链接]
蓝光币
886
发表于 2020-2-2 00:11:54 | 显示全部楼层 |阅读模式
救我们离开凶暴/但能从邪恶中拯救我们 But.Deliver.Us.from.Evil.2017.1080p.WEB-DL.AAC2.0.H264-FGT 3.72GB-1.png

译  名 救我们离开凶暴 / 但能从邪恶中拯救我们
片  名 But Deliver Us from Evil
年  代 2017
产  地 美国
类  别 惊悚 / 可骇
语  言 英语
上映日期 2017-04-27(美国)
IMDb评分  2.7/10 from 175 users
IMDb链接  https://www.imdb.com/title/tt4134826
豆瓣评分 0/10 from 0 users
豆瓣链接 https://movie.douban.com/subject/27166165/
片  长 109分钟
导  演 Joshua Coates
编  剧 Joshua Coates
主  演 埃里克·罗伯茨 Eric Roberts
       格兰特·哈维 Grant Harvey
       普奇·豪尔 Pooch Hall
       Torrei Hart
       Alice Rose
       Cynthia Rodríguez
       Thorsten Kaye
       克里斯托弗·曼恩 Christopher Mann


简  介  

  暂无相关剧情先容
  1. Video
  2. ID                                       : 1
  3. Format                                   : AVC
  4. Format/Info                              : Advanced Video Codec
  5. Format profile                           : [email protected]
  6. Format settings                          : CABAC / 4 Ref Frames
  7. Format settings, CABAC                   : Yes
  8. Format settings, Reference frames        : 4 frames
  9. Codec ID                                 : V_MPEG4/ISO/AVC
  10. Duration                                 : 1 h 48 min
  11. Bit rate                                 : 4 766 kb/s
  12. Width                                    : 1 908 pixels
  13. Height                                   : 880 pixels
  14. Display aspect ratio                     : 2.2:1
  15. Frame rate mode                          : Constant
  16. Frame rate                               : 23.976 (24000/1001) FPS
  17. Color space                              : YUV
  18. Chroma subsampling                       : 4:2:0
  19. Bit depth                                : 8 bits
  20. Scan type                                : Progressive
  21. Bits/(Pixel*Frame)                       : 0.118
  22. Stream size                              : 3.63 GiB (97%)
  23. Title                                    : But.Deliver.Us.from.Evil.2017.1080p.WEB-DL.AAC.2.0.H.264-FGT
  24. Default                                  : Yes
  25. Forced                                   : No
  26. Color range                              : Limited
  27. Color primaries                          : BT.709
  28. Transfer characteristics                 : BT.709
  29. Matrix coefficients                      : BT.709

  30. Audio
  31. ID                                       : 2
  32. Format                                   : AAC LC
  33. Format/Info                              : Advanced Audio Codec Low Complexity
  34. Codec ID                                 : A_AAC-2
  35. Duration                                 : 1 h 48 min
  36. Bit rate                                 : 126 kb/s
  37. Channel(s)                               : 2 channels
  38. Channel layout                           : L R
  39. Sampling rate                            : 48.0 kHz
  40. Frame rate                               : 46.875 FPS (1024 SPF)
  41. Compression mode                         : Lossy
  42. Stream size                              : 98.0 MiB (3%)
  43. Title                                    : But.Deliver.Us.from.Evil.2017.1080p.WEB-DL.AAC.2.0.H.264-FGT
  44. Language                                 : English
  45. Default                                  : Yes
  46. Forced                                   : No

  47. Text
  48. ID                                       : 3
  49. Format                                   : UTF-8
  50. Codec ID                                 : S_TEXT/UTF8
  51. Codec ID/Info                            : UTF-8 Plain Text
  52. Duration                                 : 1 h 45 min
  53. Bit rate                                 : 69 b/s
  54. Count of elements                        : 1474
  55. Stream size                              : 53.8 KiB (0%)
  56. Language                                 : English
  57. Default                                  : Yes
  58. Forced                                   : No

  59. Menu
  60. 00:00:00.000                             : en:1
  61. 00:09:12.177                             : en:2
  62. 00:18:48.127                             : en:3
  63. 00:31:48.198                             : en:4
  64. 00:43:18.137                             : en:5
  65. 00:56:16.206                             : en:6
  66. 01:09:34.128                             : en:7
  67. 01:16:01.182                             : en:8
  68. 01:23:17.159                             : en:9
  69. 01:34:21.155                             : en:10
  70. 01:45:22.149                             : en:11
复制代码

救我们离开凶暴/但能从邪恶中拯救我们 But.Deliver.Us.from.Evil.2017.1080p.WEB-DL.AAC2.0.H264-FGT 3.72GB-2.png 救我们离开凶暴/但能从邪恶中拯救我们 But.Deliver.Us.from.Evil.2017.1080p.WEB-DL.AAC2.0.H264-FGT 3.72GB-3.png 救我们离开凶暴/但能从邪恶中拯救我们 But.Deliver.Us.from.Evil.2017.1080p.WEB-DL.AAC2.0.H264-FGT 3.72GB-4.png






回复

使用道具 举报

懒得打字嘛,点击右侧快捷回复 【右侧内容,后台自定义】
您需要登录后才可以回帖 登录 | 立即加入

本版积分规则

Archiver|小黑屋| 蓝光电影网 |网站地图

Copyright © 2021 Comsenz Inc. Powered by 蓝光电影网

蓝光电影网

本站内容由用户自主分享和转载自互联网,转载目的在于传递更多信息,并不代表本网赞同其观点和对其真实性负责。

如有侵权、违反国家法律政策行为,请联系我们,我们会第一时间及时清除和处理!

举报反馈邮箱:[email protected]

快速回复 返回顶部 返回列表