找回密码

蓝光电影网

查看: 270|回复: 0

[惊悚] 战栗特工 Against.the.Clock.2019.1080p.AMZN.WEBRip.DDP5.1.x264-iKA 3.68GB

[复制链接]
蓝光币
886
发表于 2020-2-2 11:37:13 | 显示全部楼层 |阅读模式
战栗奸细 Against.the.Clock.2019.1080p.AMZN.WEBRip.DDP5.1.x264-iKA 3.68GB-1.png

译  名 战栗奸细 / Headlock
片  名 Against the Clock
年  代 2015
产  地 美国
类  别 惊悚
语  言 英语
上映日期 2019(美国)
IMDb评分  2.5/10 from 324 users
IMDb链接  https://www.imdb.com/title/tt3813094
豆瓣评分 0/10 from 0 users
豆瓣链接 https://movie.douban.com/subject/25979965/
导  演 马克·鲍力施 Mark Polish
编  剧 马克·鲍力施 Mark Polish
主  演 迪安娜·阿格隆 Dianna Agron
       安迪·加西亚 Andy Garcia
       詹姆斯·弗莱恩 James Frain
       芭儿·帕丽 Bar Paly
       贾斯汀·巴萨 Justin Bartha
       杰·卡尔内斯 Jay Karnes
       D.W.莫菲特 D.W. Moffett
       帕特里克·波查 Patrick Bauchau
       马克·鲍力施 Mark Polish


标  签 科幻 | 美国 | 行动 | AndyGarcia

简  介  

  After new CIA recruit, Kelley Chandler (Polish) is seriously injured during a mission, surviving only on life support, his wife Tess (Agron), a former CIA operative, becomes determined to find out what happened to her husband. As the details of Kelley's last mission unravel, showing that his accident was an inside job, Tess puts everything on the line to keep Kelley out of harm's way, even if that comes with dangerous consequences.
  1. Video
  2. ID                                       : 1
  3. Format                                   : AVC
  4. Format/Info                              : Advanced Video Codec
  5. Format profile                           : [email protected]
  6. Format settings                          : CABAC / 4 Ref Frames
  7. Format settings, CABAC                   : Yes
  8. Format settings, Reference frames        : 4 frames
  9. Codec ID                                 : V_MPEG4/ISO/AVC
  10. Duration                                 : 1 h 42 min
  11. Bit rate                                 : 4 516 kb/s
  12. Width                                    : 1 920 pixels
  13. Height                                   : 1 080 pixels
  14. Display aspect ratio                     : 16:9
  15. Frame rate mode                          : Constant
  16. Frame rate                               : 23.976 (24000/1001) FPS
  17. Color space                              : YUV
  18. Chroma subsampling                       : 4:2:0
  19. Bit depth                                : 8 bits
  20. Scan type                                : Progressive
  21. Bits/(Pixel*Frame)                       : 0.091
  22. Stream size                              : 3.22 GiB (88%)
  23. Language                                 : English
  24. Default                                  : Yes
  25. Forced                                   : No
  26. Color range                              : Limited
  27. Color primaries                          : BT.709
  28. Transfer characteristics                 : BT.709
  29. Matrix coefficients                      : BT.709

  30. Audio
  31. ID                                       : 2
  32. Format                                   : E-AC-3
  33. Format/Info                              : Enhanced AC-3
  34. Commercial name                          : Dolby Digital Plus
  35. Codec ID                                 : A_EAC3
  36. Duration                                 : 1 h 42 min
  37. Bit rate mode                            : Constant
  38. Bit rate                                 : 640 kb/s
  39. Channel(s)                               : 6 channels
  40. Channel layout                           : L R C LFE Ls Rs
  41. Sampling rate                            : 48.0 kHz
  42. Frame rate                               : 31.250 FPS (1536 SPF)
  43. Compression mode                         : Lossy
  44. Stream size                              : 468 MiB (12%)
  45. Language                                 : English
  46. Service kind                             : Complete Main
  47. Default                                  : Yes
  48. Forced                                   : No

  49. Text
  50. ID                                       : 3
  51. Format                                   : UTF-8
  52. Codec ID                                 : S_TEXT/UTF8
  53. Codec ID/Info                            : UTF-8 Plain Text
  54. Duration                                 : 1 h 36 min
  55. Bit rate                                 : 53 b/s
  56. Count of elements                        : 1175
  57. Stream size                              : 37.7 KiB (0%)
  58. Language                                 : English
  59. Default                                  : No
  60. Forced                                   : No
复制代码

战栗奸细 Against.the.Clock.2019.1080p.AMZN.WEBRip.DDP5.1.x264-iKA 3.68GB-1.png 战栗奸细 Against.the.Clock.2019.1080p.AMZN.WEBRip.DDP5.1.x264-iKA 3.68GB-3.png 战栗奸细 Against.the.Clock.2019.1080p.AMZN.WEBRip.DDP5.1.x264-iKA 3.68GB-4.png






回复

使用道具 举报

懒得打字嘛,点击右侧快捷回复 【右侧内容,后台自定义】
您需要登录后才可以回帖 登录 | 立即加入

本版积分规则

Archiver|小黑屋| 蓝光电影网 |网站地图

Copyright © 2021 Comsenz Inc. Powered by 蓝光电影网

蓝光电影网

本站内容由用户自主分享和转载自互联网,转载目的在于传递更多信息,并不代表本网赞同其观点和对其真实性负责。

如有侵权、违反国家法律政策行为,请联系我们,我们会第一时间及时清除和处理!

举报反馈邮箱:[email protected]

快速回复 返回顶部 返回列表