找回密码

蓝光电影网

查看: 264|回复: 0

[喜剧] 疾速天使/极速飞行 Maximum.Ride.2016.1080p.WEB-DL.DD5.1.H264-FGT 3.43GB

[复制链接]
蓝光币
886
发表于 2020-2-2 11:49:41 | 显示全部楼层 |阅读模式
快速天使/极速飞翔 Maximum.Ride.2016.1080p.WEB-DL.DD5.1.H264-FGT 3.43GB-1.png

译  名 快速天使 / 极速飞翔
片  名 Maximum Ride
年  代 2016
产  地 美国
类  别 笑剧 / 行动 / 冒险
语  言 英语
上映日期 2016-08-30(美国)
IMDb评分  3.6/10 from 4027 users
IMDb链接  https://www.imdb.com/title/tt0825283
豆瓣评分 3.7/10 from 325 users
豆瓣链接 https://movie.douban.com/subject/3011342/
片  长 88分钟
导  演 杰伊·马丁 Jay Martin
编  剧 詹姆斯·帕特森  James Patterson / Angelique Hanus / Jesse Spears
主  演 Allie Marie Evans
       帕特里克·约翰森 Patrick Johnson
       Lyliana Wray
       Luke Gregory Crosby
       Gavin Lewis
       Tetona Jackson
       Zayne Emory
       卡丽·瓦格勒 Carrie Wampler
       Lillie Owers
       Zander Faden
       Shaun Patrick Brady
       Karla Zamudio
       Tina Huang
       ChimneySwift11
       Omid Zader
       皮特·奥布莱恩 Peter O'Brien
       蒂娜·格瑞米 Tina Grimm


标  签 科幻 | 美国 | 行动 | 烂片 | 冒险 | 电影 | 2016 | 青少年

简  介  

  “快速天使” 系列是现今颇具影响、广受青少年爱好的小说,作品将科幻与奇异元素奇妙地融为一体,布满了速度感、悬疑感和冲击力。六个孩子被送入尝试室接管残暴的基因革新,酿成了长有同党具有超才能的鸟孩。他们逃离、叛逆,在残暴的试炼中发现他们的气力正是为了这个天下而存在。
  故事极像快速推动的大片,布满悬疑的故事、环环相扣的谜团、匪夷所思的超才能。不竭切换的场景,第一人称的论述方式,带读者敏捷进入故工作境。让读者与六个孩子一路遭受挫折、触摸感动,踏上摸索生命真理与未来命运的旅程!
  1. Video
  2. ID                                       : 1
  3. Format                                   : AVC
  4. Format/Info                              : Advanced Video Codec
  5. Format profile                           : [email protected]
  6. Format settings                          : CABAC / 4 Ref Frames
  7. Format settings, CABAC                   : Yes
  8. Format settings, Reference frames        : 4 frames
  9. Codec ID                                 : V_MPEG4/ISO/AVC
  10. Duration                                 : 1 h 28 min
  11. Bit rate                                 : 5 071 kb/s
  12. Width                                    : 1 916 pixels
  13. Height                                   : 1 076 pixels
  14. Display aspect ratio                     : 16:9
  15. Frame rate mode                          : Constant
  16. Frame rate                               : 23.976 FPS
  17. Color space                              : YUV
  18. Chroma subsampling                       : 4:2:0
  19. Bit depth                                : 8 bits
  20. Scan type                                : Progressive
  21. Bits/(Pixel*Frame)                       : 0.103
  22. Stream size                              : 3.13 GiB (91%)
  23. Title                                    : Maximum.Ride.2016.1080p.WEB-DL.DD5.1.H264-FGT
  24. Language                                 : English
  25. Default                                  : Yes
  26. Forced                                   : No
  27. Color range                              : Limited
  28. Color primaries                          : BT.709
  29. Transfer characteristics                 : BT.709
  30. Matrix coefficients                      : BT.709

  31. Audio
  32. ID                                       : 2
  33. Format                                   : AC-3
  34. Format/Info                              : Audio Coding 3
  35. Commercial name                          : Dolby Digital
  36. Codec ID                                 : A_AC3
  37. Duration                                 : 1 h 28 min
  38. Bit rate mode                            : Constant
  39. Bit rate                                 : 384 kb/s
  40. Channel(s)                               : 6 channels
  41. Channel layout                           : L R C LFE Ls Rs
  42. Sampling rate                            : 48.0 kHz
  43. Frame rate                               : 31.250 FPS (1536 SPF)
  44. Compression mode                         : Lossy
  45. Stream size                              : 242 MiB (7%)
  46. Title                                    : Maximum.Ride.2016.1080p.WEB-DL.DD5.1.H264-FGT
  47. Language                                 : English
  48. Service kind                             : Complete Main
  49. Default                                  : Yes
  50. Forced                                   : No

  51. Text
  52. ID                                       : 3
  53. Format                                   : UTF-8
  54. Codec ID                                 : S_TEXT/UTF8
  55. Codec ID/Info                            : UTF-8 Plain Text
  56. Language                                 : English
  57. Default                                  : Yes
  58. Forced                                   : No

  59. Menu
  60. 00:00:00.000                             : en:Chapter 1
  61. 00:08:04.000                             : en:Chapter 2
  62. 00:13:29.000                             : en:Chapter 3
  63. 00:24:55.000                             : en:Chapter 4
  64. 00:31:36.000                             : en:Chapter 5
  65. 00:40:11.000                             : en:Chapter 6
  66. 00:47:51.000                             : en:Chapter 7
  67. 00:56:47.000                             : en:Chapter 8
  68. 01:01:37.000                             : en:Chapter 9
  69. 01:11:46.000                             : en:Chapter 10
  70. 01:18:16.000                             : en:Chapter 11
  71. 01:21:40.000                             : en:Chapter 12
复制代码

快速天使/极速飞翔 Maximum.Ride.2016.1080p.WEB-DL.DD5.1.H264-FGT 3.43GB-2.png 快速天使/极速飞翔 Maximum.Ride.2016.1080p.WEB-DL.DD5.1.H264-FGT 3.43GB-3.png 快速天使/极速飞翔 Maximum.Ride.2016.1080p.WEB-DL.DD5.1.H264-FGT 3.43GB-4.png 快速天使/极速飞翔 Maximum.Ride.2016.1080p.WEB-DL.DD5.1.H264-FGT 3.43GB-5.png 快速天使/极速飞翔 Maximum.Ride.2016.1080p.WEB-DL.DD5.1.H264-FGT 3.43GB-6.png 快速天使/极速飞翔 Maximum.Ride.2016.1080p.WEB-DL.DD5.1.H264-FGT 3.43GB-7.png






回复

使用道具 举报

懒得打字嘛,点击右侧快捷回复 【右侧内容,后台自定义】
您需要登录后才可以回帖 登录 | 立即加入

本版积分规则

Archiver|小黑屋| 蓝光电影网 |网站地图

Copyright © 2021 Comsenz Inc. Powered by 蓝光电影网

蓝光电影网

本站内容由用户自主分享和转载自互联网,转载目的在于传递更多信息,并不代表本网赞同其观点和对其真实性负责。

如有侵权、违反国家法律政策行为,请联系我们,我们会第一时间及时清除和处理!

举报反馈邮箱:[email protected]

快速回复 返回顶部 返回列表