找回密码

蓝光电影网

查看: 206|回复: 0

[惊悚] 与敌共处 Living.with.the.Enemy.2005.1080p.WEB-DL.DD5.1.H264-FGT 3.27GB

[复制链接]
蓝光币
1022
发表于 2020-2-2 11:50:24 | 显示全部楼层 |阅读模式
与敌共处 Living.with.the.Enemy.2005.1080p.WEB-DL.DD5.1.H264-FGT 3.27GB-1.png

译  名 与敌共处
片  名 Living with the Enemy
年  代 2005
产  地 加拿大
类  别 惊悚
语  言 英语
上映日期 2005-11-07
IMDb评分  5.3/10 from 555 users
IMDb链接  https://www.imdb.com/title/tt0465417
豆瓣评分 6.2/10 from 65 users
豆瓣链接 https://movie.douban.com/subject/3794655/
导  演 Philippe Gagnon
主  演 Sarah Lancaster
       Mark Humphrey


标  签 加拿大 | 英国 | 悬疑 | 恋爱 | 莎拉·兰卡斯特 | 英语发音,中笔墨幕 | 电影 | 英国电影

简  介  

  在一次科技大会上,美丽但贫困的小助理艾丽森与科技富翁菲利普一见钟情,二人很快坠入爱河,闪电成婚。由于贫富差异悬殊,虽然一切人都不看好二人的婚姻,但艾丽森还是深信自己和菲利普可以获得幸运。新家虽然很大,但治理非常周密,特别是菲利普的姐姐托亚处处和自己作对,让艾丽森非常难过。在这个家她唯一的朋友就是看管马厩的小女孩安妮,二人无话不谈,成为了很是要好的朋友。但新婚的热度还没退,艾丽森就遭到了来自各个方面的压力。
  她不能随意外出,一切工作都要事前告诉保安,而这一切都和菲利普前妻的死有关。本来,一年前,菲利普的前妻莫妮奎遭到绑架,并被残暴地杀死。在一个偶然的机遇下,艾丽森听到仆人们的闲言碎语,很多人以为是菲利普雇人杀死了莫妮奎。这让艾丽森非常受惊,她翻看了很多关于莫妮奎灭亡的材料发现了各种缝隙,而且晓得丈夫在此前不止结过一次婚。艾丽森忽然后悔起自己的感动,由于她和一个自己不非常领会的汉子结了婚。
  而此时联邦观察局的人也找上了艾丽森,并告之菲利普不止与莫妮奎的谋杀案有关,还涉嫌多起谋杀案,而这都是为了让他的科技公司获得更大的利润。为了领会工作的真相,艾丽森赞成帮助联邦观察局展开观察。随着观察的深入,她发现丈夫前妻莫妮奎的死因并不纯真,但此举却能够让她甚至活不到成婚周年数念日。而另一方面,菲利普的合股人卡尔不竭地要求艾丽森签订婚前协议,以确保万一发买卖外不会朋分菲利普公司的财富。
  艾丽森感受自己堕入了一个庞大的诡计,而菲利普也意想到了妻子的不服常,并带她去自己的度假小屋散心。在这里,艾丽森发现了菲利普前妻莫妮奎的项链,领会到这个小屋才是第一案发现场。她汇集好一切证据,预备公司晚宴当天逃出向联邦观察局乞助。却没想到在关键时辰被卡尔暗害,要杀死她和菲利普,艾丽森这时才觉悟过来,本来幕后的黑手是卡尔。最初,历经艰难,夫妻二人逃了出来,并揭穿了卡尔的丑陋脸孔,卡尔畏罪自杀。
  1. Video
  2. ID                                       : 1
  3. Format                                   : AVC
  4. Format/Info                              : Advanced Video Codec
  5. Format profile                           : [email protected]
  6. Format settings                          : CABAC / 4 Ref Frames
  7. Format settings, CABAC                   : Yes
  8. Format settings, Reference frames        : 4 frames
  9. Codec ID                                 : V_MPEG4/ISO/AVC
  10. Duration                                 : 1 h 29 min
  11. Bit rate                                 : 4 859 kb/s
  12. Width                                    : 1 920 pixels
  13. Height                                   : 1 080 pixels
  14. Display aspect ratio                     : 16:9
  15. Frame rate mode                          : Constant
  16. Frame rate                               : 23.976 (24000/1001) FPS
  17. Color space                              : YUV
  18. Chroma subsampling                       : 4:2:0
  19. Bit depth                                : 8 bits
  20. Scan type                                : Progressive
  21. Bits/(Pixel*Frame)                       : 0.098
  22. Stream size                              : 3.03 GiB (93%)
  23. Title                                    : Living.with.the.Enemy.2005.1080p.WEB-DL.DD5.1.H.264-FGT
  24. Default                                  : Yes
  25. Forced                                   : No
  26. Color range                              : Limited
  27. Color primaries                          : BT.709
  28. Transfer characteristics                 : BT.709
  29. Matrix coefficients                      : BT.709

  30. Audio
  31. ID                                       : 2
  32. Format                                   : AC-3
  33. Format/Info                              : Audio Coding 3
  34. Commercial name                          : Dolby Digital
  35. Codec ID                                 : A_AC3
  36. Duration                                 : 1 h 29 min
  37. Bit rate mode                            : Constant
  38. Bit rate                                 : 384 kb/s
  39. Channel(s)                               : 6 channels
  40. Channel layout                           : L R C LFE Ls Rs
  41. Sampling rate                            : 44.1 kHz
  42. Frame rate                               : 28.711 FPS (1536 SPF)
  43. Compression mode                         : Lossy
  44. Stream size                              : 245 MiB (7%)
  45. Title                                    : Living.with.the.Enemy.2005.1080p.WEB-DL.DD5.1.H.264-FGT
  46. Language                                 : English
  47. Service kind                             : Complete Main
  48. Default                                  : Yes
  49. Forced                                   : No

  50. Text
  51. ID                                       : 3
  52. Format                                   : UTF-8
  53. Codec ID                                 : S_TEXT/UTF8
  54. Codec ID/Info                            : UTF-8 Plain Text
  55. Duration                                 : 1 h 26 min
  56. Bit rate                                 : 51 b/s
  57. Count of elements                        : 1178
  58. Stream size                              : 32.8 KiB (0%)
  59. Language                                 : English
  60. Default                                  : Yes
  61. Forced                                   : No

  62. Menu
  63. 00:00:00.000                             : en:Chapter 1
  64. 00:05:56.000                             : en:Chapter 2
  65. 00:10:13.000                             : en:Chapter 3
  66. 00:18:43.000                             : en:Chapter 4
  67. 00:39:46.000                             : en:Chapter 5
  68. 00:50:48.000                             : en:Chapter 6
  69. 01:15:27.000                             : en:Chapter 7
  70. 01:26:59.000                             : en:Chapter 8
复制代码

与敌共处 Living.with.the.Enemy.2005.1080p.WEB-DL.DD5.1.H264-FGT 3.27GB-2.png 与敌共处 Living.with.the.Enemy.2005.1080p.WEB-DL.DD5.1.H264-FGT 3.27GB-3.png 与敌共处 Living.with.the.Enemy.2005.1080p.WEB-DL.DD5.1.H264-FGT 3.27GB-4.png






回复

使用道具 举报

懒得打字嘛,点击右侧快捷回复 【右侧内容,后台自定义】
您需要登录后才可以回帖 登录 | 立即加入

本版积分规则

Archiver|小黑屋| 蓝光电影网 |网站地图

Copyright © 2021 Comsenz Inc. Powered by 蓝光电影网

蓝光电影网

本站内容由用户自主分享和转载自互联网,转载目的在于传递更多信息,并不代表本网赞同其观点和对其真实性负责。

如有侵权、违反国家法律政策行为,请联系我们,我们会第一时间及时清除和处理!

举报反馈邮箱:[email protected]

快速回复 返回顶部 返回列表