找回密码

蓝光电影网

查看: 133|回复: 0

[剧情] 黄金出口 Golden.Exits.2017.1080p.WEB-DL.DD5.1.H264-FGT 3.64GB

[复制链接]
蓝光币
1020
发表于 2020-2-2 11:55:16 | 显示全部楼层 |阅读模式
黄金出口 Golden.Exits.2017.1080p.WEB-DL.DD5.1.H264-FGT 3.64GB-1.png

译  名 黄金出口
片  名 Golden Exits
年  代 2017
产  地 美国
类  别 剧情
语  言 英语
上映日期 2017-01-22(圣丹斯电影节) / 2018-02-09(美国)
IMDb评分  5.8/10 from 1657 users
IMDb链接  https://www.imdb.com/title/tt5687814
豆瓣评分 6.6/10 from 225 users
豆瓣链接 https://movie.douban.com/subject/26788584/
片  长 94分钟
导  演 亚历克斯·罗斯·派瑞 Alex Ross Perry
编  剧 亚历克斯·罗斯·派瑞 Alex Ross Perry
主  演 艾米莉·布朗宁 Emily Browning
       玛丽·露易斯·帕克 Mary-Louise Parker
       安娜丽·提普顿 Analeigh Tipton
       科洛·塞维尼 Chlo? Sevigny
       莉莉·拉贝 Lily Rabe
       詹森·舒瓦兹曼 Jason Schwartzman
       亚当·霍罗维茨 Adam Horovitz


标  签 美国 | 2017 | 自力电影 | 圣丹斯 | 剧情 | 家庭 | AlexRossPerry | 美国电影

简  介  

  An intersectional narrative of two families in Brooklyn and the unraveling of unspoken unhappiness that occurs when a young foreign girl spending time abroad upsets the balance on both sides.

获奖情况  

  第33届圣丹斯电影节(2017)
  评审团大奖 剧情片(提名) 亚历克斯·罗斯·派瑞
  1. Video
  2. ID                                       : 1
  3. Format                                   : AVC
  4. Format/Info                              : Advanced Video Codec
  5. Format profile                           : [email protected]
  6. Format settings                          : CABAC / 4 Ref Frames
  7. Format settings, CABAC                   : Yes
  8. Format settings, Reference frames        : 4 frames
  9. Codec ID                                 : V_MPEG4/ISO/AVC
  10. Duration                                 : 1 h 33 min
  11. Bit rate                                 : 5 197 kb/s
  12. Width                                    : 1 920 pixels
  13. Height                                   : 1 032 pixels
  14. Display aspect ratio                     : 1.85:1
  15. Frame rate mode                          : Constant
  16. Frame rate                               : 23.976 (23976/1000) FPS
  17. Color space                              : YUV
  18. Chroma subsampling                       : 4:2:0
  19. Bit depth                                : 8 bits
  20. Scan type                                : Progressive
  21. Bits/(Pixel*Frame)                       : 0.109
  22. Stream size                              : 3.39 GiB (93%)
  23. Title                                    : Golden.Exits.2018.1080p.WEB-DL.DD5.1.H264-FGT
  24. Language                                 : English
  25. Default                                  : Yes
  26. Forced                                   : No
  27. Color range                              : Limited
  28. Color primaries                          : BT.709
  29. Transfer characteristics                 : BT.709
  30. Matrix coefficients                      : BT.709

  31. Audio
  32. ID                                       : 2
  33. Format                                   : AC-3
  34. Format/Info                              : Audio Coding 3
  35. Commercial name                          : Dolby Digital
  36. Codec ID                                 : A_AC3
  37. Duration                                 : 1 h 33 min
  38. Bit rate mode                            : Constant
  39. Bit rate                                 : 384 kb/s
  40. Channel(s)                               : 6 channels
  41. Channel layout                           : L R C LFE Ls Rs
  42. Sampling rate                            : 48.0 kHz
  43. Frame rate                               : 31.250 FPS (1536 SPF)
  44. Compression mode                         : Lossy
  45. Stream size                              : 257 MiB (7%)
  46. Title                                    : Golden.Exits.2018.1080p.WEB-DL.DD5.1.H264-FGT
  47. Language                                 : English
  48. Service kind                             : Complete Main
  49. Default                                  : Yes
  50. Forced                                   : No

  51. Menu
  52. 00:00:00.000                             : en:1
  53. 00:07:01.421                             : en:2
  54. 00:12:04.182                             : en:3
  55. 00:17:17.828                             : en:4
  56. 00:22:44.362                             : en:5
  57. 00:30:30.244                             : en:6
  58. 00:33:42.603                             : en:7
  59. 00:40:52.866                             : en:8
  60. 00:45:35.148                             : en:9
  61. 00:51:10.650                             : en:10
  62. 00:56:34.473                             : en:11
  63. 01:06:15.470                             : en:12
  64. 01:10:15.626                             : en:13
  65. 01:14:47.397                             : en:14
  66. 01:22:03.332                             : en:15
  67. 01:25:49.891                             : en:16
复制代码

黄金出口 Golden.Exits.2017.1080p.WEB-DL.DD5.1.H264-FGT 3.64GB-2.png 黄金出口 Golden.Exits.2017.1080p.WEB-DL.DD5.1.H264-FGT 3.64GB-3.png 黄金出口 Golden.Exits.2017.1080p.WEB-DL.DD5.1.H264-FGT 3.64GB-4.png 黄金出口 Golden.Exits.2017.1080p.WEB-DL.DD5.1.H264-FGT 3.64GB-5.png 黄金出口 Golden.Exits.2017.1080p.WEB-DL.DD5.1.H264-FGT 3.64GB-6.png 黄金出口 Golden.Exits.2017.1080p.WEB-DL.DD5.1.H264-FGT 3.64GB-7.png






回复

使用道具 举报

懒得打字嘛,点击右侧快捷回复 【右侧内容,后台自定义】
您需要登录后才可以回帖 登录 | 立即加入

本版积分规则

Archiver|小黑屋| 蓝光电影网 |网站地图

Copyright © 2021 Comsenz Inc. Powered by 蓝光电影网

蓝光电影网

本站内容由用户自主分享和转载自互联网,转载目的在于传递更多信息,并不代表本网赞同其观点和对其真实性负责。

如有侵权、违反国家法律政策行为,请联系我们,我们会第一时间及时清除和处理!

举报反馈邮箱:[email protected]

快速回复 返回顶部 返回列表