找回密码

蓝光电影网

查看: 511|回复: 1

[喜剧] 比佛利山超级警探3/妙探出差3 Beverly.Hills.Cop.III.1994.REMASTERED.1080p.BluRay.REMUX.AVC.DTS-HD.MA.5.1-FGT 27.30GB

[复制链接]
蓝光币
1020
发表于 2020-2-2 12:03:40 | 显示全部楼层 |阅读模式
比佛利山超级警探3/妙探出差3 Beverly.Hills.Cop.III.1994.REMASTERED.1080p.BluRay.REMUX.AVC.DTS-HD.MA.5.1-FGT 27.30GB-1.png

译  名 比佛利山超级警探3 / 妙探出差3 / 妙探出差第三集 / 妙探出更第三集 / 比佛利山警探3 / 轰隆炮3
片  名 Beverly Hills Cop III
年  代 1994
产  地 美国
类  别 笑剧 / 行动 / 惊悚 / 犯罪
语  言 英语
上映日期 1994-05-25
IMDb评分  5.6/10 from 72661 users
IMDb链接  https://www.imdb.com/title/tt0109254
豆瓣评分 6.2/10 from 754 users
豆瓣链接 https://movie.douban.com/subject/1301785/
片  长 104 分钟
导  演 John Landis
编  剧 Steven E. de Souza / Danilo Bach / Daniel Petrie Jr.
主  演 Eddie Murphy
       Jon Tenney
       Joey Travolta
       Eugene Collier


标  签 笑剧 | 美国 | 行动 | 美国电影 | 1994 | 警匪 | EddieMurphy | 搞笑

简  介  

  我们的变态规干探艾索(艾迪?墨菲 Eddie Murphy 饰)又返来了!艾索身为底特律的刑警,却三番四次跑到了洛山矶去破案,此次也不破例。艾索被派遣观察一宗谋杀案,他发现了案中的连续串线索,顺藤摸瓜之下终极追踪到了洛山矶比佛利山上一个大型游乐场的仆人。
  回到久违的洛山矶,艾索固然要找到前两集的最好拍档――洛山矶刑警比利(祖德?莱茵霍尔德 Judge Reinhold 饰)。因而比利和艾索两人深入虎穴,间接来到了游乐场观察。没想到的是,游乐场仆人在这里设备了重重障碍,面临他们的将是连场恶斗!
  1. Video
  2. ID                                       : 1
  3. Format                                   : AVC
  4. Format/Info                              : Advanced Video Codec
  5. Format profile                           : [email protected]
  6. Format settings                          : CABAC / 4 Ref Frames
  7. Format settings, CABAC                   : Yes
  8. Format settings, Reference frames        : 4 frames
  9. Codec ID                                 : V_MPEG4/ISO/AVC
  10. Duration                                 : 1 h 44 min
  11. Bit rate mode                            : Variable
  12. Bit rate                                 : 32.7 Mb/s
  13. Maximum bit rate                         : 35.0 Mb/s
  14. Width                                    : 1 920 pixels
  15. Height                                   : 1 080 pixels
  16. Display aspect ratio                     : 16:9
  17. Frame rate mode                          : Constant
  18. Frame rate                               : 23.976 (24000/1001) FPS
  19. Color space                              : YUV
  20. Chroma subsampling                       : 4:2:0
  21. Bit depth                                : 8 bits
  22. Scan type                                : Progressive
  23. Bits/(Pixel*Frame)                       : 0.658
  24. Stream size                              : 23.8 GiB (87%)
  25. Title                                    : Beverly.Hills.Cop.III.1994.REMASTERED.1080p.BluRay.REMUX.AVC.DTS-HD.MA.5.1-FGT
  26. Language                                 : English
  27. Default                                  : No
  28. Forced                                   : No

  29. Audio #1
  30. ID                                       : 2
  31. Format                                   : DTS XLL
  32. Format/Info                              : Digital Theater Systems
  33. Commercial name                          : DTS-HD Master Audio
  34. Codec ID                                 : A_DTS
  35. Duration                                 : 1 h 44 min
  36. Bit rate mode                            : Variable
  37. Bit rate                                 : 2 070 kb/s
  38. Channel(s)                               : 6 channels
  39. Channel layout                           : C L R Ls Rs LFE
  40. Sampling rate                            : 48.0 kHz
  41. Frame rate                               : 93.750 FPS (512 SPF)
  42. Bit depth                                : 24 bits
  43. Compression mode                         : Lossless
  44. Stream size                              : 1.51 GiB (6%)
  45. Title                                    : Beverly.Hills.Cop.III.1994.REMASTERED.1080p.BluRay.REMUX.AVC.DTS-HD.MA.5.1-FGT
  46. Language                                 : English
  47. Default                                  : Yes
  48. Forced                                   : No

  49. Audio #2
  50. ID                                       : 3
  51. Format                                   : AC-3
  52. Format/Info                              : Audio Coding 3
  53. Commercial name                          : Dolby Digital
  54. Codec ID                                 : A_AC3
  55. Duration                                 : 1 h 44 min
  56. Bit rate mode                            : Constant
  57. Bit rate                                 : 640 kb/s
  58. Channel(s)                               : 6 channels
  59. Channel layout                           : L R C LFE Ls Rs
  60. Sampling rate                            : 48.0 kHz
  61. Frame rate                               : 31.250 FPS (1536 SPF)
  62. Bit depth                                : 16 bits
  63. Compression mode                         : Lossy
  64. Stream size                              : 477 MiB (2%)
  65. Title                                    : Beverly.Hills.Cop.III.1994.REMASTERED.1080p.BluRay.REMUX.AVC.DTS-HD.MA.5.1-FGT
  66. Language                                 : German
  67. Service kind                             : Complete Main
  68. Default                                  : No
  69. Forced                                   : No

  70. Audio #3
  71. ID                                       : 4
  72. Format                                   : AC-3
  73. Format/Info                              : Audio Coding 3
  74. Commercial name                          : Dolby Digital
  75. Codec ID                                 : A_AC3
  76. Duration                                 : 1 h 44 min
  77. Bit rate mode                            : Constant
  78. Bit rate                                 : 224 kb/s
  79. Channel(s)                               : 2 channels
  80. Channel layout                           : L R
  81. Sampling rate                            : 48.0 kHz
  82. Frame rate                               : 31.250 FPS (1536 SPF)
  83. Bit depth                                : 16 bits
  84. Compression mode                         : Lossy
  85. Stream size                              : 167 MiB (1%)
  86. Title                                    : Beverly.Hills.Cop.III.1994.REMASTERED.1080p.BluRay.REMUX.AVC.DTS-HD.MA.5.1-FGT
  87. Language                                 : Spanish
  88. Service kind                             : Complete Main
  89. Default                                  : No
  90. Forced                                   : No

  91. Audio #4
  92. ID                                       : 5
  93. Format                                   : AC-3
  94. Format/Info                              : Audio Coding 3
  95. Commercial name                          : Dolby Digital
  96. Codec ID                                 : A_AC3
  97. Duration                                 : 1 h 44 min
  98. Bit rate mode                            : Constant
  99. Bit rate                                 : 224 kb/s
  100. Channel(s)                               : 2 channels
  101. Channel layout                           : L R
  102. Sampling rate                            : 48.0 kHz
  103. Frame rate                               : 31.250 FPS (1536 SPF)
  104. Bit depth                                : 16 bits
  105. Compression mode                         : Lossy
  106. Stream size                              : 167 MiB (1%)
  107. Title                                    : Beverly.Hills.Cop.III.1994.REMASTERED.1080p.BluRay.REMUX.AVC.DTS-HD.MA.5.1-FGT
  108. Language                                 : Spanish
  109. Service kind                             : Complete Main
  110. Default                                  : No
  111. Forced                                   : No

  112. Audio #5
  113. ID                                       : 6
  114. Format                                   : AC-3
  115. Format/Info                              : Audio Coding 3
  116. Commercial name                          : Dolby Digital
  117. Codec ID                                 : A_AC3
  118. Duration                                 : 1 h 44 min
  119. Bit rate mode                            : Constant
  120. Bit rate                                 : 640 kb/s
  121. Channel(s)                               : 6 channels
  122. Channel layout                           : L R C LFE Ls Rs
  123. Sampling rate                            : 48.0 kHz
  124. Frame rate                               : 31.250 FPS (1536 SPF)
  125. Bit depth                                : 16 bits
  126. Compression mode                         : Lossy
  127. Stream size                              : 477 MiB (2%)
  128. Title                                    : Beverly.Hills.Cop.III.1994.REMASTERED.1080p.BluRay.REMUX.AVC.DTS-HD.MA.5.1-FGT
  129. Language                                 : French
  130. Service kind                             : Complete Main
  131. Default                                  : No
  132. Forced                                   : No

  133. Audio #6
  134. ID                                       : 7
  135. Format                                   : AC-3
  136. Format/Info                              : Audio Coding 3
  137. Commercial name                          : Dolby Digital
  138. Codec ID                                 : A_AC3
  139. Duration                                 : 1 h 44 min
  140. Bit rate mode                            : Constant
  141. Bit rate                                 : 640 kb/s
  142. Channel(s)                               : 6 channels
  143. Channel layout                           : L R C LFE Ls Rs
  144. Sampling rate                            : 48.0 kHz
  145. Frame rate                               : 31.250 FPS (1536 SPF)
  146. Bit depth                                : 16 bits
  147. Compression mode                         : Lossy
  148. Stream size                              : 477 MiB (2%)
  149. Title                                    : Beverly.Hills.Cop.III.1994.REMASTERED.1080p.BluRay.REMUX.AVC.DTS-HD.MA.5.1-FGT
  150. Language                                 : Italian
  151. Service kind                             : Complete Main
  152. Default                                  : No
  153. Forced                                   : No

  154. Audio #7
  155. ID                                       : 8
  156. Format                                   : AC-3
  157. Format/Info                              : Audio Coding 3
  158. Commercial name                          : Dolby Digital
  159. Codec ID                                 : A_AC3
  160. Duration                                 : 1 h 44 min
  161. Bit rate mode                            : Constant
  162. Bit rate                                 : 224 kb/s
  163. Channel(s)                               : 2 channels
  164. Channel layout                           : L R
  165. Sampling rate                            : 48.0 kHz
  166. Frame rate                               : 31.250 FPS (1536 SPF)
  167. Bit depth                                : 16 bits
  168. Compression mode                         : Lossy
  169. Stream size                              : 167 MiB (1%)
  170. Title                                    : Beverly.Hills.Cop.III.1994.REMASTERED.1080p.BluRay.REMUX.AVC.DTS-HD.MA.5.1-FGT
  171. Language                                 : Japanese
  172. Service kind                             : Complete Main
  173. Default                                  : No
  174. Forced                                   : No

  175. Text #1
  176. ID                                       : 9
  177. Format                                   : PGS
  178. Muxing mode                              : zlib
  179. Codec ID                                 : S_HDMV/PGS
  180. Codec ID/Info                            : Picture based subtitle format used on BDs/HD-DVDs
  181. Duration                                 : 1 h 43 min
  182. Bit rate                                 : 43.4 kb/s
  183. Count of elements                        : 1950
  184. Stream size                              : 32.1 MiB (0%)
  185. Title                                    : English-PGS
  186. Language                                 : English
  187. Default                                  : Yes
  188. Forced                                   : No

  189. Text #2
  190. ID                                       : 10
  191. Format                                   : PGS
  192. Muxing mode                              : zlib
  193. Codec ID                                 : S_HDMV/PGS
  194. Codec ID/Info                            : Picture based subtitle format used on BDs/HD-DVDs
  195. Duration                                 : 1 h 44 min
  196. Bit rate                                 : 47.4 kb/s
  197. Count of elements                        : 2246
  198. Stream size                              : 35.3 MiB (0%)
  199. Title                                    : English-SDH-PGS
  200. Language                                 : English
  201. Default                                  : No
  202. Forced                                   : No

  203. Text #3
  204. ID                                       : 11
  205. Format                                   : PGS
  206. Muxing mode                              : zlib
  207. Codec ID                                 : S_HDMV/PGS
  208. Codec ID/Info                            : Picture based subtitle format used on BDs/HD-DVDs
  209. Duration                                 : 1 h 43 min
  210. Bit rate                                 : 27.0 kb/s
  211. Count of elements                        : 1458
  212. Stream size                              : 20.0 MiB (0%)
  213. Title                                    : Danish-PGS
  214. Language                                 : Danish
  215. Default                                  : No
  216. Forced                                   : No

  217. Text #4
  218. ID                                       : 12
  219. Format                                   : PGS
  220. Muxing mode                              : zlib
  221. Codec ID                                 : S_HDMV/PGS
  222. Codec ID/Info                            : Picture based subtitle format used on BDs/HD-DVDs
  223. Duration                                 : 1 h 43 min
  224. Bit rate                                 : 43.2 kb/s
  225. Count of elements                        : 1934
  226. Stream size                              : 32.1 MiB (0%)
  227. Title                                    : German-PGS
  228. Language                                 : German
  229. Default                                  : No
  230. Forced                                   : No

  231. Text #5
  232. ID                                       : 13
  233. Format                                   : PGS
  234. Muxing mode                              : zlib
  235. Codec ID                                 : S_HDMV/PGS
  236. Codec ID/Info                            : Picture based subtitle format used on BDs/HD-DVDs
  237. Duration                                 : 1 h 43 min
  238. Bit rate                                 : 39.7 kb/s
  239. Count of elements                        : 1986
  240. Stream size                              : 29.5 MiB (0%)
  241. Title                                    : Spanish-PGS
  242. Language                                 : Spanish
  243. Default                                  : No
  244. Forced                                   : No

  245. Text #6
  246. ID                                       : 14
  247. Format                                   : PGS
  248. Muxing mode                              : zlib
  249. Codec ID                                 : S_HDMV/PGS
  250. Codec ID/Info                            : Picture based subtitle format used on BDs/HD-DVDs
  251. Duration                                 : 1 h 43 min
  252. Bit rate                                 : 35.9 kb/s
  253. Count of elements                        : 1976
  254. Stream size                              : 26.7 MiB (0%)
  255. Title                                    : Spanish-PGS
  256. Language                                 : Spanish
  257. Default                                  : No
  258. Forced                                   : No

  259. Text #7
  260. ID                                       : 15
  261. Format                                   : PGS
  262. Muxing mode                              : zlib
  263. Codec ID                                 : S_HDMV/PGS
  264. Codec ID/Info                            : Picture based subtitle format used on BDs/HD-DVDs
  265. Duration                                 : 1 h 43 min
  266. Bit rate                                 : 33.8 kb/s
  267. Count of elements                        : 1846
  268. Stream size                              : 25.1 MiB (0%)
  269. Title                                    : French-PGS
  270. Language                                 : French
  271. Default                                  : No
  272. Forced                                   : No

  273. Text #8
  274. ID                                       : 16
  275. Format                                   : PGS
  276. Muxing mode                              : zlib
  277. Codec ID                                 : S_HDMV/PGS
  278. Codec ID/Info                            : Picture based subtitle format used on BDs/HD-DVDs
  279. Duration                                 : 1 h 43 min
  280. Bit rate                                 : 40.5 kb/s
  281. Count of elements                        : 1908
  282. Stream size                              : 30.1 MiB (0%)
  283. Title                                    : Italian-PGS
  284. Language                                 : Italian
  285. Default                                  : No
  286. Forced                                   : No

  287. Text #9
  288. ID                                       : 17
  289. Format                                   : PGS
  290. Muxing mode                              : zlib
  291. Codec ID                                 : S_HDMV/PGS
  292. Codec ID/Info                            : Picture based subtitle format used on BDs/HD-DVDs
  293. Duration                                 : 1 h 43 min
  294. Bit rate                                 : 20.6 kb/s
  295. Count of elements                        : 1714
  296. Stream size                              : 15.3 MiB (0%)
  297. Title                                    : Korean-PGS
  298. Language                                 : Korean
  299. Default                                  : No
  300. Forced                                   : No

  301. Text #10
  302. ID                                       : 18
  303. Format                                   : PGS
  304. Muxing mode                              : zlib
  305. Codec ID                                 : S_HDMV/PGS
  306. Codec ID/Info                            : Picture based subtitle format used on BDs/HD-DVDs
  307. Duration                                 : 1 h 43 min
  308. Bit rate                                 : 26.5 kb/s
  309. Count of elements                        : 1412
  310. Stream size                              : 19.6 MiB (0%)
  311. Title                                    : Dutch-PGS
  312. Language                                 : Dutch
  313. Default                                  : No
  314. Forced                                   : No

  315. Text #11
  316. ID                                       : 19
  317. Format                                   : PGS
  318. Muxing mode                              : zlib
  319. Codec ID                                 : S_HDMV/PGS
  320. Codec ID/Info                            : Picture based subtitle format used on BDs/HD-DVDs
  321. Duration                                 : 1 h 43 min
  322. Bit rate                                 : 29.0 kb/s
  323. Count of elements                        : 1728
  324. Stream size                              : 21.5 MiB (0%)
  325. Title                                    : Norwegian-PGS
  326. Language                                 : Norwegian
  327. Default                                  : No
  328. Forced                                   : No

  329. Text #12
  330. ID                                       : 20
  331. Format                                   : PGS
  332. Muxing mode                              : zlib
  333. Codec ID                                 : S_HDMV/PGS
  334. Codec ID/Info                            : Picture based subtitle format used on BDs/HD-DVDs
  335. Duration                                 : 1 h 43 min
  336. Bit rate                                 : 32.7 kb/s
  337. Count of elements                        : 1534
  338. Stream size                              : 24.3 MiB (0%)
  339. Title                                    : Finnish-PGS
  340. Language                                 : Finnish
  341. Default                                  : No
  342. Forced                                   : No

  343. Text #13
  344. ID                                       : 21
  345. Format                                   : PGS
  346. Muxing mode                              : zlib
  347. Codec ID                                 : S_HDMV/PGS
  348. Codec ID/Info                            : Picture based subtitle format used on BDs/HD-DVDs
  349. Duration                                 : 1 h 43 min
  350. Bit rate                                 : 29.9 kb/s
  351. Count of elements                        : 1458
  352. Stream size                              : 22.2 MiB (0%)
  353. Title                                    : Swedish-PGS
  354. Language                                 : Swedish
  355. Default                                  : No
  356. Forced                                   : No

  357. Text #14
  358. ID                                       : 22
  359. Format                                   : PGS
  360. Muxing mode                              : zlib
  361. Codec ID                                 : S_HDMV/PGS
  362. Codec ID/Info                            : Picture based subtitle format used on BDs/HD-DVDs
  363. Duration                                 : 1 h 36 min
  364. Bit rate                                 : 21.6 kb/s
  365. Count of elements                        : 1894
  366. Stream size                              : 15.0 MiB (0%)
  367. Title                                    : Japanese-PGS
  368. Language                                 : Japanese
  369. Default                                  : No
  370. Forced                                   : No

  371. Text #15
  372. ID                                       : 23
  373. Format                                   : PGS
  374. Muxing mode                              : zlib
  375. Codec ID                                 : S_HDMV/PGS
  376. Codec ID/Info                            : Picture based subtitle format used on BDs/HD-DVDs
  377. Duration                                 : 1 h 43 min
  378. Bit rate                                 : 674 b/s
  379. Count of elements                        : 34
  380. Stream size                              : 513 KiB (0%)
  381. Title                                    : German-FORCED-PGS
  382. Language                                 : German
  383. Default                                  : No
  384. Forced                                   : No

  385. Text #16
  386. ID                                       : 24
  387. Format                                   : PGS
  388. Muxing mode                              : zlib
  389. Codec ID                                 : S_HDMV/PGS
  390. Codec ID/Info                            : Picture based subtitle format used on BDs/HD-DVDs
  391. Duration                                 : 1 h 43 min
  392. Bit rate                                 : 552 b/s
  393. Count of elements                        : 28
  394. Stream size                              : 420 KiB (0%)
  395. Title                                    : Spanish-FORCED-PGS
  396. Language                                 : Spanish
  397. Default                                  : No
  398. Forced                                   : No

  399. Text #17
  400. ID                                       : 25
  401. Format                                   : PGS
  402. Muxing mode                              : zlib
  403. Codec ID                                 : S_HDMV/PGS
  404. Codec ID/Info                            : Picture based subtitle format used on BDs/HD-DVDs
  405. Duration                                 : 1 h 39 min
  406. Bit rate                                 : 713 b/s
  407. Count of elements                        : 36
  408. Stream size                              : 521 KiB (0%)
  409. Title                                    : Spanish-FORCED-PGS
  410. Language                                 : Spanish
  411. Default                                  : No
  412. Forced                                   : No

  413. Text #18
  414. ID                                       : 26
  415. Format                                   : PGS
  416. Muxing mode                              : zlib
  417. Codec ID                                 : S_HDMV/PGS
  418. Codec ID/Info                            : Picture based subtitle format used on BDs/HD-DVDs
  419. Duration                                 : 1 h 43 min
  420. Bit rate                                 : 309 b/s
  421. Count of elements                        : 16
  422. Stream size                              : 236 KiB (0%)
  423. Title                                    : French-FORCED-PGS
  424. Language                                 : French
  425. Default                                  : No
  426. Forced                                   : No

  427. Text #19
  428. ID                                       : 27
  429. Format                                   : PGS
  430. Muxing mode                              : zlib
  431. Codec ID                                 : S_HDMV/PGS
  432. Codec ID/Info                            : Picture based subtitle format used on BDs/HD-DVDs
  433. Duration                                 : 1 h 43 min
  434. Bit rate                                 : 760 b/s
  435. Count of elements                        : 40
  436. Stream size                              : 579 KiB (0%)
  437. Title                                    : Italian-FORCED-PGS
  438. Language                                 : Italian
  439. Default                                  : No
  440. Forced                                   : No

  441. Text #20
  442. ID                                       : 28
  443. Format                                   : PGS
  444. Muxing mode                              : zlib
  445. Codec ID                                 : S_HDMV/PGS
  446. Codec ID/Info                            : Picture based subtitle format used on BDs/HD-DVDs
  447. Duration                                 : 1 h 35 min
  448. Bit rate                                 : 1 007 b/s
  449. Count of elements                        : 90
  450. Stream size                              : 707 KiB (0%)
  451. Title                                    : Japanese-FORCED-PGS
  452. Language                                 : Japanese
  453. Default                                  : No
  454. Forced                                   : No

  455. Menu
  456. 00:00:00.000                             : en:Chapter 01
  457. 00:09:34.782                             : en:Chapter 02
  458. 00:15:58.624                             : en:Chapter 03
  459. 00:20:57.965                             : en:Chapter 04
  460. 00:26:57.365                             : en:Chapter 05
  461. 00:37:37.755                             : en:Chapter 06
  462. 00:40:06.153                             : en:Chapter 07
  463. 00:46:26.742                             : en:Chapter 08
  464. 00:53:20.155                             : en:Chapter 09
  465. 00:56:22.170                             : en:Chapter 10
  466. 01:03:24.008                             : en:Chapter 11
  467. 01:10:29.892                             : en:Chapter 12
  468. 01:19:19.421                             : en:Chapter 13
  469. 01:37:21.836                             : en:Chapter 14
复制代码

比佛利山超级警探3/妙探出差3 Beverly.Hills.Cop.III.1994.REMASTERED.1080p.BluRay.REMUX.AVC.DTS-HD.MA.5.1-FGT 27.30GB-2.png 比佛利山超级警探3/妙探出差3 Beverly.Hills.Cop.III.1994.REMASTERED.1080p.BluRay.REMUX.AVC.DTS-HD.MA.5.1-FGT 27.30GB-3.png 比佛利山超级警探3/妙探出差3 Beverly.Hills.Cop.III.1994.REMASTERED.1080p.BluRay.REMUX.AVC.DTS-HD.MA.5.1-FGT 27.30GB-4.png






回复

使用道具 举报

懒得打字嘛,点击右侧快捷回复 【右侧内容,后台自定义】
您需要登录后才可以回帖 登录 | 立即加入

本版积分规则

Archiver|小黑屋| 蓝光电影网 |网站地图

Copyright © 2021 Comsenz Inc. Powered by 蓝光电影网

蓝光电影网

本站内容由用户自主分享和转载自互联网,转载目的在于传递更多信息,并不代表本网赞同其观点和对其真实性负责。

如有侵权、违反国家法律政策行为,请联系我们,我们会第一时间及时清除和处理!

举报反馈邮箱:[email protected]

快速回复 返回顶部 返回列表