找回密码

蓝光电影网

查看: 163|回复: 0

[惊悚] 鬼声波 The.Sound.2017.1080p.WEB-DL.DD5.1.H264-FGT 3.24GB

[复制链接]
蓝光币
886
发表于 2020-2-2 12:15:19 | 显示全部楼层 |阅读模式
鬼声波 The.Sound.2017.1080p.WEB-DL.DD5.1.H264-FGT 3.24GB-1.png

译  名 鬼声波 / Lower Bay
片  名 The Sound
年  代 2017
产  地 加拿大
类  别 惊悚
语  言 英语
上映日期 2017-09-29(美国)
IMDb评分  3.6/10 from 1404 users
IMDb链接  https://www.imdb.com/title/tt4669278
豆瓣评分 3.5/10 from 240 users
豆瓣链接 https://movie.douban.com/subject/26605791/
片  长 92分钟
导  演 Jenna Mattison
编  剧 Jenna Mattison
主  演 罗丝·麦高恩 Rose McGowan
       克里斯托弗·洛伊德 Christopher Lloyd
       迈克尔·艾克朗德 Michael Eklund
       理查德·古恩 Richard Gunn
       Jane Moffat


标  签 可骇 | 惊悚 | 灵异 | 烂片 | 悬疑 | 加拿大 | 2017 | 诡异

简  介  

  A writer who studies the paranormal believes that low frequency tactile sound is the cause for reported ghost sightings in an abandoned subway station. In an attempt to debunk the sightings, she breaks into the station to record evidence.
  1. Video
  2. ID                                       : 1
  3. Format                                   : AVC
  4. Format/Info                              : Advanced Video Codec
  5. Format profile                           : [email protected]
  6. Format settings                          : CABAC / 5 Ref Frames
  7. Format settings, CABAC                   : Yes
  8. Format settings, Reference frames        : 5 frames
  9. Codec ID                                 : V_MPEG4/ISO/AVC
  10. Duration                                 : 1 h 32 min
  11. Bit rate                                 : 4 608 kb/s
  12. Width                                    : 1 904 pixels
  13. Height                                   : 804 pixels
  14. Display aspect ratio                     : 2.35:1
  15. Frame rate mode                          : Constant
  16. Frame rate                               : 23.976 (24000/1001) FPS
  17. Color space                              : YUV
  18. Chroma subsampling                       : 4:2:0
  19. Bit depth                                : 8 bits
  20. Scan type                                : Progressive
  21. Bits/(Pixel*Frame)                       : 0.126
  22. Stream size                              : 2.99 GiB (92%)
  23. Title                                    : The.Sound.2017.1080p.WEB-DL.DD5.1.H264-FGT
  24. Language                                 : English
  25. Default                                  : Yes
  26. Forced                                   : No
  27. Color range                              : Limited
  28. Color primaries                          : BT.709
  29. Transfer characteristics                 : BT.709
  30. Matrix coefficients                      : BT.709

  31. Audio
  32. ID                                       : 2
  33. Format                                   : AC-3
  34. Format/Info                              : Audio Coding 3
  35. Commercial name                          : Dolby Digital
  36. Codec ID                                 : A_AC3
  37. Duration                                 : 1 h 32 min
  38. Bit rate mode                            : Constant
  39. Bit rate                                 : 384 kb/s
  40. Channel(s)                               : 6 channels
  41. Channel layout                           : L R C LFE Ls Rs
  42. Sampling rate                            : 48.0 kHz
  43. Frame rate                               : 31.250 FPS (1536 SPF)
  44. Bit depth                                : 16 bits
  45. Compression mode                         : Lossy
  46. Stream size                              : 255 MiB (8%)
  47. Title                                    : The.Sound.2017.1080p.WEB-DL.DD5.1.H264-FGT
  48. Language                                 : English
  49. Service kind                             : Complete Main
  50. Default                                  : Yes
  51. Forced                                   : No

  52. Text
  53. ID                                       : 3
  54. Format                                   : UTF-8
  55. Codec ID                                 : S_TEXT/UTF8
  56. Codec ID/Info                            : UTF-8 Plain Text
  57. Duration                                 : 1 h 25 min
  58. Bit rate                                 : 22 b/s
  59. Count of elements                        : 567
  60. Stream size                              : 13.9 KiB (0%)
  61. Language                                 : English
  62. Default                                  : Yes
  63. Forced                                   : No

  64. Menu
  65. 00:00:00.000                             : en:Chapter 1
  66. 00:09:47.587                             : en:Chapter 2
  67. 00:21:09.268                             : en:Chapter 3
  68. 00:30:26.825                             : en:Chapter 4
  69. 00:40:18.416                             : en:Chapter 5
  70. 00:50:32.029                             : en:Chapter 6
  71. 01:00:00.597                             : en:Chapter 7
  72. 01:09:34.170                             : en:Chapter 8
  73. 01:20:00.796                             : en:Chapter 9
  74. 01:29:16.351                             : en:Chapter 10
复制代码

鬼声波 The.Sound.2017.1080p.WEB-DL.DD5.1.H264-FGT 3.24GB-2.png 鬼声波 The.Sound.2017.1080p.WEB-DL.DD5.1.H264-FGT 3.24GB-3.png 鬼声波 The.Sound.2017.1080p.WEB-DL.DD5.1.H264-FGT 3.24GB-4.png






回复

使用道具 举报

懒得打字嘛,点击右侧快捷回复 【右侧内容,后台自定义】
您需要登录后才可以回帖 登录 | 立即加入

本版积分规则

Archiver|小黑屋| 蓝光电影网 |网站地图

Copyright © 2021 Comsenz Inc. Powered by 蓝光电影网

蓝光电影网

本站内容由用户自主分享和转载自互联网,转载目的在于传递更多信息,并不代表本网赞同其观点和对其真实性负责。

如有侵权、违反国家法律政策行为,请联系我们,我们会第一时间及时清除和处理!

举报反馈邮箱:[email protected]

快速回复 返回顶部 返回列表