找回密码

蓝光电影网

查看: 134|回复: 0

[剧情] 大学新生 Underclassman.2005.1080p.WEB-DL.DD5.1.H264-FGT 3.21GB

[复制链接]
蓝光币
886
发表于 2020-2-2 12:21:06 | 显示全部楼层 |阅读模式
大学新生 Underclassman.2005.1080p.WEB-DL.DD5.1.H264-FGT 3.21GB-1.png

译  名 大学新生 / Underclassman / 大学新生 / 校园威龙
片  名 The Underclassman
年  代 2005
产  地 美国
类  别 剧情 / 笑剧 / 行动 / 惊悚 / 犯罪
语  言 英语
上映日期 2005-09-02
IMDb评分  4.3/10 from 5321 users
IMDb链接  https://www.imdb.com/title/tt0373416
豆瓣评分 6.3/10 from 589 users
豆瓣链接 https://movie.douban.com/subject/1422910/
片  长 95 分钟
导  演 Matthew O'Callaghan
编  剧 Brent Goldberg / David Wagner / Nick Cannon
主  演 尼克·卡农 Nick Cannon
       罗塞莉·桑切斯 Roselyn Sanchez
       肖恩·阿什莫 Shawn Ashmore
       休·博内威利 Hugh Bonneville
       罗伯 布鲁纳 Rob Bruner
       胡凯丽 Kelly Hu


标  签 美国 | 笑剧 | 校园 | 青春 | 美国电影 | 大学新生 | 行动 | 2005

简  介  

  特雷西斯(尼克·卡农 Nick Cannon 饰)成为警探已经四年了,虽然他聪明智慧处事牢靠,但这么长时候曩昔,特雷西斯仍然没有获得同寅们和老板的欣赏,缘由只要一个,那就是他长着的那张超级无敌心爱娃娃脸。
  一路由特雷西斯负责的恶性案件中,线索指向了一所贵族黉舍,想要追踪这些线索,唯一的方式就是在校园内安插卧底,毫无疑问,特雷西斯是成为卧底的最好人选。就这样,特雷西斯重新回到了高中校园,没想到,此次他要面临的,是史无前例的应战。繁重的作业,复杂的校园人际关系,扑朔迷离的案件,这一切都让特雷西斯感应力有未逮,幸亏有标致性感的女教员为他撑腰,特雷西斯才得以度过难关,也就是在这一进程中,案件的真相逐步浮出了水面。
  1. Video
  2. ID                                       : 1
  3. Format                                   : AVC
  4. Format/Info                              : Advanced Video Codec
  5. Format profile                           : [email protected]
  6. Format settings                          : CABAC / 5 Ref Frames
  7. Format settings, CABAC                   : Yes
  8. Format settings, Reference frames        : 5 frames
  9. Codec ID                                 : V_MPEG4/ISO/AVC
  10. Duration                                 : 1 h 33 min
  11. Bit rate                                 : 4 445 kb/s
  12. Width                                    : 1 920 pixels
  13. Height                                   : 820 pixels
  14. Display aspect ratio                     : 2.35:1
  15. Frame rate mode                          : Constant
  16. Frame rate                               : 23.976 FPS
  17. Color space                              : YUV
  18. Chroma subsampling                       : 4:2:0
  19. Bit depth                                : 8 bits
  20. Scan type                                : Progressive
  21. Bits/(Pixel*Frame)                       : 0.118
  22. Stream size                              : 2.90 GiB (90%)
  23. Title                                    : Underclassman.2005.1080p.WEB-DL.DD5.1.H264-FGT
  24. Language                                 : English
  25. Default                                  : Yes
  26. Forced                                   : No
  27. Color range                              : Limited
  28. Color primaries                          : BT.709
  29. Transfer characteristics                 : BT.709
  30. Matrix coefficients                      : BT.709

  31. Audio
  32. ID                                       : 2
  33. Format                                   : AC-3
  34. Format/Info                              : Audio Coding 3
  35. Commercial name                          : Dolby Digital
  36. Codec ID                                 : A_AC3
  37. Duration                                 : 1 h 33 min
  38. Bit rate mode                            : Constant
  39. Bit rate                                 : 384 kb/s
  40. Channel(s)                               : 6 channels
  41. Channel layout                           : L R C LFE Ls Rs
  42. Sampling rate                            : 48.0 kHz
  43. Frame rate                               : 31.250 FPS (1536 SPF)
  44. Compression mode                         : Lossy
  45. Stream size                              : 257 MiB (8%)
  46. Title                                    : Underclassman.2005.1080p.WEB-DL.DD5.1.H264-FGT
  47. Language                                 : English
  48. Service kind                             : Complete Main
  49. Default                                  : Yes
  50. Forced                                   : No

  51. Text
  52. ID                                       : 3
  53. Format                                   : UTF-8
  54. Codec ID                                 : S_TEXT/UTF8
  55. Codec ID/Info                            : UTF-8 Plain Text
  56. Language                                 : English
  57. Default                                  : Yes
  58. Forced                                   : No

  59. Menu
  60. 00:00:00.000                             : en:I'm LAPD
  61. 00:07:07.000                             : en:Back To School
  62. 00:16:47.000                             : en:Blacktop Battle
  63. 00:22:57.000                             : en:Seaside Soiree
  64. 00:28:24.000                             : en:Team Player
  65. 00:33:23.000                             : en:Private Lessons
  66. 00:38:59.000                             : en:Bliss
  67. 00:43:38.000                             : en:Stolen Cars
  68. 00:49:27.000                             : en:Saturday Night Soiree
  69. 00:53:55.000                             : en:Did You Have Him?
  70. 00:58:00.000                             : en:Blackmailed
  71. 01:06:59.000                             : en:I'll Catch You Later
  72. 01:14:07.000                             : en:Need A Lift?
  73. 01:17:31.000                             : en:Long Beach Harbor
  74. 01:24:41.000                             : en:Perfect Grammar
  75. 01:27:00.000                             : en:End Credits
复制代码

大学新生 Underclassman.2005.1080p.WEB-DL.DD5.1.H264-FGT 3.21GB-2.png 大学新生 Underclassman.2005.1080p.WEB-DL.DD5.1.H264-FGT 3.21GB-3.png 大学新生 Underclassman.2005.1080p.WEB-DL.DD5.1.H264-FGT 3.21GB-4.png 大学新生 Underclassman.2005.1080p.WEB-DL.DD5.1.H264-FGT 3.21GB-5.png 大学新生 Underclassman.2005.1080p.WEB-DL.DD5.1.H264-FGT 3.21GB-2.png 大学新生 Underclassman.2005.1080p.WEB-DL.DD5.1.H264-FGT 3.21GB-7.png






回复

使用道具 举报

懒得打字嘛,点击右侧快捷回复 【右侧内容,后台自定义】
您需要登录后才可以回帖 登录 | 立即加入

本版积分规则

Archiver|小黑屋| 蓝光电影网 |网站地图

Copyright © 2021 Comsenz Inc. Powered by 蓝光电影网

蓝光电影网

本站内容由用户自主分享和转载自互联网,转载目的在于传递更多信息,并不代表本网赞同其观点和对其真实性负责。

如有侵权、违反国家法律政策行为,请联系我们,我们会第一时间及时清除和处理!

举报反馈邮箱:[email protected]

快速回复 返回顶部 返回列表